<?xml version="1.0" standalone="no"?>
<!DOCTYPE svg PUBLIC "-//W3C//DTD SVG 1.1//EN" "http://www.w3.org/Graphics/SVG/1.1/DTD/svg11.dtd" >
<svg xmlns="http://www.w3.org/2000/svg">
<metadata>Generated by IcoMoon</metadata>
<defs>
<font id="Unicons" horiz-adv-x="1024">
<font-face units-per-em="1024" ascent="960" descent="-64" />
<missing-glyph horiz-adv-x="1024" />
<glyph unicode="&#x20;" horiz-adv-x="512" d="" />
<glyph unicode="&#xe900;" glyph-name="account" d="M128 832h768c16.973 0 33.254-6.743 45.257-18.745s18.743-28.281 18.743-45.255v-640c0-16.973-6.741-33.254-18.743-45.257s-28.284-18.743-45.257-18.743h-768c-16.974 0-33.253 6.741-45.255 18.743s-18.745 28.284-18.745 45.257v640c0 16.974 6.743 33.253 18.745 45.255s28.281 18.745 45.255 18.745zM896 704v64h-768v-64h768zM128 640v-512h768v512h-768zM608 512h-352v-64h352v64zM672 352h-416v-64h416v64z" />
<glyph unicode="&#xe901;" glyph-name="activity" d="M384 32c-6.318 0.030-12.485 1.933-17.724 5.461-5.239 3.533-9.316 8.533-11.716 14.379l-152 364.16h-138.56v64h160c6.318-0.030 12.485-1.933 17.724-5.461 5.239-3.533 9.316-8.533 11.716-14.379l130.56-309.12 257.92 692.16c2.287 6.125 6.4 11.402 11.776 15.121s11.767 5.701 18.304 5.679c6.601-0.115 13.001-2.268 18.33-6.164 5.325-3.895 9.318-9.343 11.43-15.596l121.28-362.24h136.96v-64h-160c-6.707-0.017-13.252 2.074-18.709 5.978-5.453 3.908-9.545 9.425-11.691 15.782l-97.6 298.24-257.92-683.2c-2.288-6.123-6.398-11.401-11.776-15.121-5.378-3.716-11.766-5.7-18.304-5.679z" />
<glyph unicode="&#xe902;" glyph-name="add-alt" d="M896 448c0 211.2-172.8 384-384 384s-384-172.8-384-384c0-211.2 172.8-384 384-384s384 172.8 384 384zM64 448c0 246.4 201.6 448 448 448s448-201.6 448-448c0-246.4-201.6-448-448-448s-448 201.6-448 448zM544 480h224v-64h-224v-224h-64v224h-224v64h224v224h64v-224z" />
<glyph unicode="&#xe903;" glyph-name="add" d="M544 480v224h-64v-224h-224v-64h224v-224h64v224h224v64h-224z" />
<glyph unicode="&#xe904;" glyph-name="airplay-filled" d="M768 192h128c16.969 0.017 33.237 6.767 45.235 18.765s18.748 28.267 18.765 45.235v512c-0.017 16.969-6.767 33.237-18.765 45.235s-28.267 18.747-45.235 18.765h-768c-16.969-0.018-33.237-6.767-45.235-18.765s-18.747-28.267-18.765-45.235v-512c0.018-16.969 6.767-33.237 18.765-45.235s28.267-18.748 45.235-18.765h128v64h-128v512h768v-512h-128v-64zM271.483 4.646c5.015-3.042 10.769-4.651 16.635-4.651h447.75c5.867 0 11.622 1.609 16.636 4.651 5.018 3.042 9.101 7.403 11.81 12.608s3.938 11.051 3.554 16.905c-0.38 5.854-2.364 11.49-5.726 16.294l-223.927 319.889c-2.948 4.22-6.874 7.663-11.439 10.039s-9.634 3.618-14.784 3.618c-5.146 0-10.214-1.242-14.78-3.618s-8.491-5.82-11.439-10.039l-223.927-319.889c-3.364-4.804-5.345-10.441-5.728-16.294s0.847-11.699 3.556-16.905c2.709-5.205 6.793-9.566 11.809-12.608z" />
<glyph unicode="&#xe905;" glyph-name="airplay" d="M768 192h128c16.969 0.017 33.237 6.767 45.235 18.765s18.748 28.267 18.765 45.235v512c-0.017 16.969-6.767 33.237-18.765 45.235s-28.267 18.747-45.235 18.765h-768c-16.969-0.018-33.237-6.767-45.235-18.765s-18.747-28.267-18.765-45.235v-512c0.018-16.969 6.767-33.237 18.765-45.235s28.267-18.748 45.235-18.765h128v64h-128v512h768v-512h-128v-64zM271.483 4.646c5.015-3.042 10.769-4.651 16.635-4.651h447.75c5.867 0 11.622 1.609 16.636 4.651 5.018 3.042 9.101 7.403 11.81 12.608s3.938 11.051 3.554 16.905c-0.38 5.854-2.364 11.49-5.726 16.294l-223.927 319.889c-2.948 4.22-6.874 7.663-11.439 10.039s-9.634 3.618-14.784 3.618c-5.146 0-10.214-1.242-14.78-3.618s-8.491-5.82-11.439-10.039l-223.927-319.889c-3.364-4.804-5.345-10.441-5.728-16.294s0.847-11.699 3.556-16.905c2.709-5.205 6.793-9.566 11.809-12.608zM674.551 63.996h-325.118l162.558 232.192 162.56-232.192z" />
<glyph unicode="&#xe906;" glyph-name="airport-location" d="M960 480h-194.24c-7.177 56.309-32.849 108.641-72.986 148.781s-92.467 65.818-148.774 73.001v194.217h-64v-194.217c-56.308-7.183-108.637-32.861-148.774-73.001s-65.808-92.472-72.986-148.781h-194.24v-64h194.24c7.178-56.307 32.849-108.642 72.986-148.783s92.466-65.818 148.774-72.998v-194.219h64v194.219c56.311 7.181 108.642 32.853 148.783 72.994s65.813 92.476 72.994 148.787h194.223v64zM512 256c-37.973 0-75.093 11.26-106.67 32.358-31.574 21.099-56.183 51.085-70.715 86.165-14.532 35.085-18.334 73.69-10.926 110.933s25.694 71.456 52.546 98.307c26.852 26.852 61.064 45.138 98.307 52.546s75.849 3.606 110.933-10.926c35.081-14.532 65.067-39.141 86.165-70.715 21.099-31.576 32.358-68.696 32.358-106.67-0.055-50.906-20.301-99.708-56.299-135.701-35.994-35.998-84.796-56.243-135.701-56.299z" />
<glyph unicode="&#xe907;" glyph-name="analytics" d="M64 896h64v-832h832v-64h-832c-16.974 0-33.253 6.741-45.255 18.743s-18.745 28.284-18.745 45.257v832zM736 672h224v-224h-64v114.88l-265.28-265.6c-2.974-2.999-6.515-5.38-10.415-7.006-3.9-1.621-8.081-2.458-12.305-2.458s-8.405 0.836-12.305 2.458c-3.9 1.626-7.441 4.006-10.415 7.006l-137.28 137.6-210.88-210.88-45.12 45.12 233.28 233.6c2.974 2.999 6.515 5.38 10.415 7.006 3.9 1.621 8.081 2.458 12.305 2.458s8.405-0.836 12.305-2.458c3.9-1.626 7.441-4.006 10.415-7.006l137.28-137.6 242.88 242.88h-114.88v64z" />
<glyph unicode="&#xe908;" glyph-name="api" d="M832 256c-22.601-0.111-44.736-6.421-64-18.24l-98.88 99.2c23.010 32.457 35.366 71.258 35.366 111.040s-12.356 78.583-35.366 111.040l98.88 99.2c19.264-11.82 41.399-18.129 64-18.24 25.314 0 50.065 7.507 71.113 21.572 21.052 14.065 37.457 34.056 47.142 57.445 9.69 23.389 12.224 49.126 7.287 73.955-4.941 24.83-17.131 47.637-35.034 65.538-17.899 17.901-40.708 30.092-65.536 35.031-24.832 4.939-50.569 2.404-73.958-7.284-23.386-9.688-43.379-26.094-57.442-47.144-14.067-21.049-21.572-45.797-21.572-71.113 0.111-22.6 6.421-44.737 18.24-64l-99.2-98.88c-32.457 23.008-71.258 35.366-111.040 35.366s-78.583-12.358-111.040-35.366l-99.2 98.88c11.821 19.263 18.129 41.4 18.24 64 0 25.316-7.507 50.064-21.572 71.113s-34.056 37.456-57.445 47.144c-23.389 9.688-49.126 12.223-73.955 7.284s-47.637-17.13-65.538-35.031c-17.901-17.901-30.092-40.708-35.031-65.538s-2.404-50.566 7.284-73.955c9.688-23.389 26.094-43.38 47.144-57.445s45.797-21.572 71.113-21.572c22.601 0.111 44.737 6.42 64 18.24l98.88-99.2c-23.008-32.457-35.366-71.258-35.366-111.040s12.358-78.583 35.366-111.040l-98.88-99.2c-19.263 11.819-41.399 18.129-64 18.24-25.316 0-50.063-7.505-71.113-21.572-21.050-14.063-37.455-34.057-47.144-57.442-9.688-23.39-12.223-49.126-7.284-73.958 4.939-24.828 17.129-47.637 35.031-65.536 17.901-17.903 40.709-30.093 65.538-35.034 24.829-4.937 50.566-2.402 73.955 7.287 23.389 9.685 43.38 26.091 57.445 47.142 14.065 21.047 21.572 45.798 21.572 71.113-0.111 22.601-6.419 44.736-18.24 64l99.2 98.88c32.457-23.010 71.258-35.366 111.040-35.366s78.583 12.356 111.040 35.366l99.2-98.88c-11.819-19.264-18.129-41.399-18.24-64 0-25.314 7.505-50.065 21.572-71.113 14.063-21.052 34.057-37.457 57.442-47.142 23.39-9.69 49.126-12.224 73.958-7.287 24.828 4.941 47.637 17.131 65.536 35.034 17.903 17.899 30.093 40.708 35.034 65.536 4.937 24.832 2.402 50.569-7.287 73.958-9.685 23.386-26.091 43.379-47.142 57.442-21.047 14.067-45.798 21.572-71.113 21.572zM832 832c12.659 0 25.033-3.753 35.558-10.786 10.522-7.033 18.726-17.028 23.569-28.722 4.847-11.695 6.114-24.563 3.644-36.977s-8.567-23.819-17.515-32.769c-8.951-8.951-20.356-15.046-32.772-17.516-12.412-2.469-25.28-1.202-36.975 3.642s-21.692 13.047-28.723 23.572c-7.031 10.525-10.786 22.898-10.786 35.556 0 16.974 6.741 33.253 18.743 45.255s28.284 18.745 45.257 18.745zM128 768c0 12.658 3.753 25.032 10.786 35.557s17.028 18.728 28.722 23.572c11.694 4.844 24.563 6.112 36.977 3.642s23.818-8.565 32.769-17.516c8.951-8.951 15.046-20.354 17.516-32.769s1.202-25.283-3.642-36.977c-4.844-11.695-13.047-21.69-23.572-28.722s-22.899-10.786-35.557-10.786c-16.974 0-33.252 6.743-45.255 18.745s-18.745 28.281-18.745 45.255zM192 64c-12.658 0-25.032 3.755-35.556 10.786s-18.728 17.028-23.572 28.723c-4.844 11.695-6.111 24.563-3.642 36.975 2.47 12.416 8.565 23.821 17.516 32.772 8.951 8.947 20.354 15.044 32.769 17.515s25.283 1.203 36.977-3.644c11.695-4.843 21.69-13.047 28.722-23.569 7.032-10.526 10.786-22.899 10.786-35.558 0-16.973-6.743-33.254-18.745-45.257s-28.281-18.743-45.255-18.743zM512 320c-25.314 0-50.065 7.505-71.113 21.572-21.050 14.063-37.456 34.057-47.144 57.446-9.688 23.386-12.223 49.122-7.284 73.954 4.939 24.828 17.13 47.637 35.031 65.537 17.9 17.901 40.709 30.092 65.537 35.031 24.832 4.939 50.569 2.404 73.958-7.284 23.386-9.688 43.379-26.094 57.442-47.144 14.067-21.047 21.572-45.798 21.572-71.113 0-33.946-13.487-66.505-37.491-90.509s-56.559-37.491-90.509-37.491zM832 64c-12.659 0-25.033 3.755-35.558 10.786-10.522 7.031-18.726 17.028-23.569 28.723-4.847 11.695-6.114 24.563-3.644 36.975 2.47 12.416 8.567 23.821 17.515 32.772 8.951 8.947 20.356 15.044 32.772 17.515 12.412 2.47 25.28 1.203 36.975-3.644 11.695-4.843 21.692-13.047 28.723-23.569 7.031-10.526 10.786-22.899 10.786-35.558 0-16.973-6.741-33.254-18.743-45.257s-28.284-18.743-45.257-18.743z" />
<glyph unicode="&#xe909;" glyph-name="archive" d="M192 64v832h640v-832c0-16.973-6.741-33.254-18.743-45.257s-28.284-18.743-45.257-18.743h-512c-16.974 0-33.253 6.741-45.255 18.743s-18.745 28.284-18.745 45.257zM256 64h512v384h-512v-384zM256 512h512v128h-512v-128zM256 832v-128h512v128h-512zM448 352h128v-64h-128v64z" />
<glyph unicode="&#xe90a;" glyph-name="area" d="M864 251.456v393.087c21.833 5.598 41.792 16.874 57.86 32.681 16.064 15.808 27.661 35.585 33.613 57.323 5.948 21.739 6.042 44.664 0.265 66.45-5.773 21.786-17.207 41.656-33.148 57.593-15.936 15.937-35.806 27.373-57.591 33.148s-44.71 5.682-66.449-0.268c-21.739-5.951-41.515-17.547-57.323-33.612s-27.085-36.027-32.683-57.859h-393.088c-5.598 21.832-16.874 41.794-32.681 57.859s-35.584 27.661-57.323 33.612c-21.738 5.95-44.664 6.043-66.45 0.268s-41.656-17.211-57.593-33.148c-15.937-15.937-27.373-35.807-33.148-57.593s-5.682-44.712 0.268-66.45c5.951-21.738 17.547-41.516 33.612-57.323s36.027-27.083 57.859-32.681v-393.087c-21.832-5.598-41.794-16.875-57.859-32.683s-27.662-35.584-33.612-57.323c-5.95-21.739-6.043-44.663-0.268-66.449s17.211-41.655 33.148-57.596c15.937-15.936 35.807-27.371 57.593-33.148 21.786-5.773 44.712-5.679 66.45 0.269 21.739 5.952 41.516 17.549 57.323 33.613s27.083 36.028 32.681 57.86h393.088c5.598-21.833 16.875-41.796 32.683-57.86s35.584-27.661 57.323-33.613c21.739-5.948 44.663-6.042 66.449-0.269 21.786 5.777 41.655 17.212 57.591 33.148 15.94 15.94 27.375 35.81 33.148 57.596 5.777 21.786 5.683 44.71-0.265 66.449-5.952 21.739-17.549 41.515-33.613 57.323-16.068 15.808-36.028 27.085-57.86 32.683zM832 831.999c12.659 0 25.033-3.753 35.558-10.786 10.522-7.033 18.726-17.028 23.569-28.722 4.847-11.695 6.114-24.563 3.644-36.977s-8.567-23.819-17.515-32.769c-8.951-8.951-20.356-15.046-32.772-17.516-12.412-2.469-25.28-1.202-36.975 3.642s-21.692 13.047-28.723 23.572c-7.031 10.525-10.786 22.898-10.786 35.556 0.021 16.968 6.767 33.235 18.769 45.233 11.998 11.998 28.262 18.747 45.231 18.767zM128 767.999c0 12.658 3.753 25.032 10.786 35.557s17.028 18.728 28.722 23.572c11.694 4.844 24.562 6.112 36.977 3.642s23.818-8.565 32.769-17.516c8.951-8.951 15.046-20.354 17.516-32.769s1.202-25.283-3.642-36.977c-4.844-11.695-13.047-21.69-23.572-28.722s-22.899-10.786-35.557-10.786c-16.969 0.017-33.237 6.765-45.236 18.764s-18.747 28.268-18.764 45.236zM192 64c-12.658 0-25.032 3.755-35.556 10.786s-18.728 17.028-23.572 28.723c-4.844 11.691-6.112 24.559-3.642 36.975s8.565 23.821 17.516 32.768c8.951 8.951 20.354 15.049 32.769 17.519 12.415 2.466 25.283 1.199 36.977-3.644s21.69-13.047 28.722-23.573c7.033-10.522 10.786-22.895 10.786-35.554-0.020-16.969-6.769-33.237-18.767-45.235s-28.265-18.748-45.233-18.765zM708.544 160h-393.088c-5.731 21.999-17.228 42.074-33.304 58.15s-36.15 27.575-58.152 33.306v393.087c22 5.734 42.072 17.232 58.148 33.308s27.573 36.148 33.308 58.148h393.088c5.73-22.001 17.229-42.075 33.306-58.152s36.151-27.573 58.15-33.304v-393.087c-22.003-5.73-42.078-17.225-58.155-33.301s-27.571-36.151-33.301-58.155zM832 64c-12.659 0-25.033 3.755-35.554 10.786-10.526 7.031-18.731 17.028-23.573 28.723-4.843 11.691-6.11 24.559-3.644 36.975 2.47 12.416 8.567 23.821 17.519 32.768 8.947 8.951 20.352 15.049 32.768 17.519 12.412 2.466 25.28 1.199 36.975-3.644s21.692-13.047 28.723-23.573c7.031-10.522 10.786-22.895 10.786-35.554-0.021-16.969-6.771-33.233-18.769-45.231s-28.262-18.748-45.231-18.769z" />
<glyph unicode="&#xe90b;" glyph-name="arrow-down" d="M786.88 429.12l-242.88-242.56v645.44h-64v-645.44l-242.88 242.56-45.12-45.12 320-320 320 320-45.12 45.12z" />
<glyph unicode="&#xe90c;" glyph-name="arrow-left" d="M448 128l45.12 45.12-242.56 242.88h645.44v64h-645.44l242.56 242.88-45.12 45.12-320-320 320-320z" />
<glyph unicode="&#xe90d;" glyph-name="arrow-right" d="M576 768l-45.76-44.576 242.56-243.424h-644.8v-64h644.8l-242.56-242.338 45.76-45.662 320 320-320 320z" />
<glyph unicode="&#xe90e;" glyph-name="arrow-up-right" d="M320 768v-64h402.88l-530.88-530.88 45.12-45.12 530.88 530.88v-402.88h64v512h-512z" />
<glyph unicode="&#xe90f;" glyph-name="arrow-up" d="M512 832l-320-320 45.12-45.12 242.88 242.56v-645.44h64v645.44l242.88-242.56 45.12 45.12-320 320z" />
<glyph unicode="&#xe910;" glyph-name="asleep" d="M432.081 786.765c-14.671-62.631-16.666-127.564-5.871-190.978s34.164-124.030 68.732-178.276c34.569-54.251 79.633-101.039 132.553-137.613 52.915-36.574 112.614-62.199 175.578-75.362-33.105-34.244-72.755-61.491-116.591-80.124-43.84-18.633-90.974-28.267-138.607-28.331-4.429 0-8.9-0.166-13.367 0-82.923 2.931-162.199 34.82-224.059 90.121s-102.396 130.522-114.568 212.599c-12.172 82.078 4.79 165.824 47.939 236.697s109.759 124.394 188.262 151.267zM479.36 864c-1.873-0.003-3.742-0.17-5.585-0.499-101.897-18.099-193.492-73.261-257.144-154.863s-94.858-183.868-87.608-287.104c7.25-103.236 52.443-200.141 126.875-272.043 74.432-71.906 172.838-113.724 276.262-117.406 5.252-0.192 10.505 0 15.71 0 67.162-0.034 133.346 16.102 192.956 47.044 59.605 30.946 110.891 75.789 149.508 130.735 3.132 4.736 4.958 10.214 5.299 15.881s-0.819 11.319-3.362 16.397c-2.539 5.077-6.374 9.391-11.115 12.514s-10.223 4.941-15.889 5.269c-63.927 5.611-125.713 25.843-180.578 59.14-54.861 33.293-101.333 78.758-135.821 132.877-34.492 54.123-56.073 115.448-63.078 179.241-7.010 63.792 0.747 128.34 22.665 188.657 1.865 4.826 2.551 10.027 1.997 15.171-0.55 5.144-2.325 10.081-5.171 14.402s-6.682 7.898-11.191 10.435c-4.51 2.537-9.557 3.961-14.729 4.152z" />
<glyph unicode="&#xe911;" glyph-name="attachment" d="M899.2 355.2l-480 480c-80 83.2-211.2 83.2-294.4 3.2s-83.2-214.4 0-294.4l3.2-3.2 89.6-92.8 44.8 44.8-92.8 92.8c-54.4 54.4-54.4 147.2 0 201.6s147.2 57.6 201.6 3.2c0 0 0 0 3.2-3.2l476.8-476.8c57.6-54.4 57.6-147.2 3.2-201.6-54.4-57.6-147.2-57.6-201.6-3.2 0 0 0 0-3.2 3.2l-236.8 236.8c-32 32-28.8 83.2 0 112 32 28.8 80 28.8 112 0l131.2-131.2 44.8 44.8-134.4 134.4c-57.6 54.4-147.2 51.2-201.6-6.4-51.2-54.4-51.2-140.8 0-198.4l240-240c80-83.2 211.2-83.2 294.4-3.2s83.2 214.4 0 297.6c0-3.2 0 0 0 0z" />
<glyph unicode="&#xe912;" glyph-name="audio-console" d="M224 319.842h32c16.968-0.017 33.235-6.767 45.233-18.765s18.747-28.267 18.767-45.235v-64c-0.020-16.964-6.769-33.233-18.767-45.231s-28.266-18.748-45.233-18.769h-32v-128h-64v128h-32c-16.968 0.021-33.235 6.771-45.233 18.769s-18.747 28.267-18.767 45.231v64c0.020 16.969 6.769 33.237 18.767 45.235s28.266 18.748 45.233 18.765h32v576.002h64v-576.002zM128 191.842h128v64h-128v-64zM576 767.844h-32v128h-64v-128h-32c-16.969-0.016-33.238-6.764-45.237-18.763s-18.747-28.268-18.763-45.237v-64c0.016-16.969 6.764-33.238 18.763-45.237s28.268-18.746 45.237-18.763h32v-576.002h64v576.002h32c16.969 0.017 33.237 6.765 45.235 18.764s18.748 28.268 18.765 45.236v64c-0.017 16.969-6.767 33.237-18.765 45.236s-28.267 18.747-45.235 18.764zM576 639.844h-128v64h128v-64zM896 511.842h-32v384.002h-64v-384.002h-32c-16.969-0.013-33.237-6.763-45.235-18.761-12.002-11.998-18.748-28.271-18.765-45.239v-64c0.021-16.964 6.767-33.233 18.765-45.231s28.267-18.748 45.235-18.769h32v-320h64v320h32c16.969 0.026 33.233 6.775 45.231 18.773s18.748 28.262 18.769 45.227v64c-0.021 16.969-6.767 33.237-18.765 45.235-12.002 11.998-28.267 18.748-45.235 18.765zM896 383.842h-128v64h128v-64z" />
<glyph unicode="&#xe913;" glyph-name="augmented-reality" d="M178.767 18.765c11.998-11.998 28.266-18.743 45.233-18.765h416c16.969 0.021 33.237 6.767 45.235 18.765 11.998 12.002 18.743 28.267 18.765 45.235v128h-64v-128h-416v768h416v64h-416c-16.968-0.020-33.235-6.769-45.233-18.767s-18.747-28.266-18.767-45.233v-768c0.020-16.969 6.769-33.233 18.767-45.235zM878.315 668.623l-192 96c-4.446 2.221-9.344 3.377-14.315 3.377s-9.869-1.156-14.315-3.377l-192-96c-5.316-2.658-9.783-6.744-12.907-11.8s-4.779-10.881-4.779-16.824v-223.999c0-5.943 1.655-11.767 4.779-16.823s7.59-9.143 12.907-11.802l192-96c4.446-2.219 9.348-3.375 14.315-3.375s9.869 1.156 14.315 3.375l192 96c5.316 2.658 9.783 6.746 12.907 11.802s4.779 10.88 4.779 16.823v223.999c0 5.943-1.655 11.769-4.779 16.824s-7.59 9.142-12.907 11.8zM672 700.217l120.439-60.218-120.439-60.218-120.439 60.218 120.439 60.218zM512 588.217l128-64.001v-152.435l-128 64v152.436zM704 371.78v152.435l128 64.001v-152.436l-128-64zM432 128c26.509 0 48 21.491 48 48s-21.491 48-48 48c-26.51 0-48-21.491-48-48s21.49-48 48-48z" />
<glyph unicode="&#xe914;" glyph-name="auto-scroll" d="M690.56 627.2l-178.56 178.24-178.88-178.56-45.12 45.12 224 224 224-224-45.44-44.8zM384 448c0-25.314 7.507-50.065 21.572-71.113 14.065-21.052 34.057-37.457 57.443-47.142 23.39-9.69 49.126-12.224 73.958-7.287 24.828 4.941 47.637 17.131 65.536 35.034 17.903 17.899 30.093 40.708 35.034 65.536 4.937 24.832 2.402 50.569-7.287 73.958-9.685 23.386-26.091 43.377-47.142 57.443-21.047 14.065-45.798 21.572-71.113 21.572-33.946 0-66.505-13.486-90.51-37.49s-37.49-56.564-37.49-90.51zM576 448c0-12.659-3.755-25.033-10.786-35.558-7.031-10.522-17.028-18.726-28.723-23.569-11.695-4.847-24.563-6.114-36.975-3.644-12.416 2.47-23.821 8.567-32.772 17.515-8.947 8.951-15.044 20.356-17.515 32.772-2.47 12.412-1.203 25.28 3.644 36.975 4.843 11.695 13.047 21.692 23.569 28.723 10.526 7.031 22.899 10.786 35.558 10.786 16.973 0 33.254-6.741 45.257-18.743s18.743-28.284 18.743-45.257zM512 90.556l-179.2 178.88-44.8-45.44 224-224 224 224-45.12 45.12-178.88-178.56z" />
<glyph unicode="&#xe915;" glyph-name="awake" d="M544 896h-64v-158.72h64v158.72zM806.204 787.732l-112.23-112.232 45.257-45.255 112.23 112.232-45.257 45.255zM801.28 480h158.72v-64h-158.72v64zM739.418 265.941l-45.257-45.252 112.23-112.235 45.257 45.257-112.23 112.23zM480 158.72h64v-158.72h-64v158.72zM284.926 265.754l-112.232-112.23 45.255-45.257 112.232 112.235-45.255 45.252zM64 480h158.72v-64h-158.72v64zM217.762 787.544l-45.255-45.255 112.232-112.232 45.255 45.255-112.232 112.232zM583.113 554.428c-21.047 14.065-45.798 21.572-71.113 21.572-33.946 0-66.505-13.486-90.51-37.49s-37.49-56.564-37.49-90.51c0-25.314 7.507-50.065 21.572-71.113 14.065-21.052 34.057-37.457 57.447-47.142 23.386-9.69 49.122-12.224 73.954-7.287 24.828 4.941 47.637 17.131 65.536 35.034 17.903 17.899 30.093 40.708 35.034 65.536 4.937 24.832 2.402 50.569-7.287 73.958-9.685 23.386-26.091 43.377-47.142 57.443zM405.331 607.642c31.576 21.097 68.696 32.358 106.669 32.358 50.923 0 99.759-20.229 135.765-56.236s56.235-84.842 56.235-135.764c0-37.973-11.26-75.093-32.358-106.671-21.099-31.573-51.085-56.183-86.165-70.716-35.085-14.532-73.69-18.334-110.933-10.923-37.244 7.407-71.456 25.694-98.307 52.544-26.852 26.854-45.138 61.065-52.546 98.308s-3.606 75.849 10.926 110.933c14.532 35.082 39.141 65.069 70.716 86.166z" />
<glyph unicode="&#xe916;" glyph-name="back-to-top" d="M128 704h768v-64h-768v64zM192 192l320 320 320-320-44.8-44.8-275.2 275.2-275.2-275.2-44.8 44.8z" />
<glyph unicode="&#xe917;" glyph-name="bar" d="M320 928h160c8.486 0 16.627-3.371 22.626-9.373 6.003-6.001 9.374-14.141 9.374-22.627v-192h-64v160h-96v-247.063l-21.875-7.296c-2.733-1.002-74.125-27.642-74.125-129.642v-416h128v-64h-160c-8.487 0-16.626 3.371-22.627 9.374-6.001 5.999-9.373 14.14-9.373 22.626v448c-2.217 35.968 5.581 71.844 22.528 103.645s42.38 58.281 73.472 76.496v235.859c0 8.487 3.372 16.626 9.373 22.627s14.141 9.373 22.627 9.373zM480 608h320c8.486 0 16.627-3.372 22.626-9.373 6.003-6.001 9.374-14.141 9.374-22.627v-128c-0.077-45.333-16.175-89.178-45.457-123.785-29.278-34.611-69.85-57.749-114.543-65.335v-194.88h96v-64h-256v64h96v194.88c-44.693 7.586-85.265 30.724-114.547 65.335-29.278 34.607-45.376 78.451-45.453 123.785v128c0 8.487 3.371 16.626 9.374 22.627 5.999 6.001 14.14 9.373 22.626 9.373zM730.509 357.491c24.004 24.004 37.491 56.563 37.491 90.509v96h-256v-96c0-33.946 13.487-66.505 37.491-90.509s56.559-37.491 90.509-37.491c33.946 0 66.505 13.487 90.509 37.491z" />
<glyph unicode="&#xe918;" glyph-name="barrier" d="M480 800h64v-128h-64v128zM480 608h64v-128h-64v128zM544 416h-64v-128h64v128zM480 224h64v-128h-64v128z" />
<glyph unicode="&#xe919;" glyph-name="bastion-host" d="M880.87 873.312c-6.003 7.115-13.487 12.832-21.926 16.751-8.444 3.919-17.643 5.945-26.948 5.937h-86.11c-8.917 0.001-17.655-2.482-25.242-7.17-7.582-4.688-13.713-11.395-17.698-19.371l-18.735-37.459h-44.215v16c0 12.73-5.056 24.94-14.059 33.941s-21.21 14.059-33.941 14.059h-160c-12.73 0-24.94-5.057-33.941-14.059s-14.059-21.21-14.059-33.941v-16h-44.218l-18.72 37.44c-3.992 7.982-10.127 14.694-17.719 19.385s-16.34 7.175-25.263 7.175h-86.080c-9.306-0.002-18.499-2.033-26.938-5.951s-15.924-9.63-21.931-16.738c-6.007-7.107-10.391-15.439-12.848-24.413s-2.927-18.378-1.378-27.554l22.531-133.344c3.781-22.367 15.36-42.673 32.684-57.317s39.275-22.68 61.959-22.683h9.92v-384c-25.452-0.030-49.854-10.15-67.852-28.147s-28.121-42.402-28.148-67.853v-128h704v128c-0.030 25.451-10.15 49.856-28.147 67.853-18.001 17.997-42.402 28.117-67.853 28.147v384h9.92c22.686 0.001 44.638 8.036 61.965 22.68s28.907 34.951 32.687 57.32l22.532 133.344c1.562 9.176 1.097 18.582-1.361 27.56s-6.852 17.308-12.868 24.408zM799.996 128v-64h-576v64c0.008 8.486 3.381 16.619 9.381 22.618s14.135 9.374 22.619 9.382h512c8.486-0.009 16.619-3.383 22.618-9.382s9.374-14.131 9.382-22.618zM703.996 224h-384v384h384v-384zM809.463 698.656c-1.246-7.461-5.103-14.236-10.88-19.118-5.781-4.882-13.103-7.553-20.668-7.538h-531.84c-7.569-0.017-14.897 2.655-20.679 7.54s-9.638 11.666-10.883 19.131l-22.518 133.328h76.218l32-64h147.782v64h128v-64h147.75l32.030 64h76.22l-22.532-133.344z" />
<glyph unicode="&#xe91a;" glyph-name="blog" d="M832 512h-640c-16.974 0-33.253 6.741-45.255 18.743-12.002 12.004-18.745 28.283-18.745 45.257v192c0 16.974 6.743 33.253 18.745 45.255s28.281 18.745 45.255 18.745h640c16.973 0 33.254-6.743 45.257-18.745s18.743-28.281 18.743-45.255v-192c0-16.974-6.741-33.253-18.743-45.257-12.002-12.002-28.284-18.743-45.257-18.743zM192 768v-192h640v192h-640zM128 384h320v-64h-320v64zM128 192h320v-64h-320v64zM640 64h192c16.973 0 33.254 6.741 45.257 18.743s18.743 28.284 18.743 45.257v192c0 16.973-6.741 33.254-18.743 45.257s-28.284 18.743-45.257 18.743h-192c-16.973 0-33.254-6.741-45.257-18.743s-18.743-28.284-18.743-45.257v-192c0-16.973 6.741-33.254 18.743-45.257s28.284-18.743 45.257-18.743zM640 128v192h192v-192h-192z" />
<glyph unicode="&#xe91b;" glyph-name="book" d="M128 800h768c16.969-0.017 33.237-6.765 45.235-18.764s18.748-28.268 18.765-45.236v-576c-0.017-16.969-6.767-33.237-18.765-45.235s-28.267-18.748-45.235-18.765h-768c-16.969 0.017-33.237 6.767-45.236 18.765s-18.747 28.267-18.764 45.235v576c0.017 16.969 6.765 33.237 18.764 45.236s28.268 18.747 45.236 18.764zM480 736h-352v-576h352v576zM544 736v-576h352v576h-352zM416 640h-224v-64h224v64zM832 640h-224v-64h224v64zM832 480h-224v-64h224v64zM608 320h224v-64h-224v64zM192 480h224v-64h-224v64zM416 320h-224v-64h224v64z" />
<glyph unicode="&#xe91c;" glyph-name="bookmark-add" d="M768 103.953v344.047h64v-448l-320 161.719-320-161.719v832c0 16.974 6.743 33.253 18.745 45.255s28.281 18.745 45.255 18.745h320v-64h-320v-727.936l256 129.374 256-129.485zM768 896h64v-128h128v-64h-128v-128h-64v128h-128v64h128v128z" />
<glyph unicode="&#xe91d;" glyph-name="bookmark" d="M768 832v-728l-256 129.28-28.8-14.4-227.2-114.88v728h512zM768 896h-512c-16.974 0-33.253-6.743-45.255-18.745s-18.745-28.281-18.745-45.255v-832l320 160 320-160v832c0 16.974-6.741 33.253-18.743 45.255s-28.284 18.745-45.257 18.745z" />
<glyph unicode="&#xe91e;" glyph-name="box" d="M128 832h768c16.973 0 33.254-6.743 45.257-18.745s18.743-28.281 18.743-45.255v-128c0-16.974-6.741-33.253-18.743-45.255s-28.284-18.745-45.257-18.745v-512c0-16.973-6.741-33.254-18.743-45.257s-28.284-18.743-45.257-18.743h-640c-16.974 0-33.253 6.741-45.255 18.743s-18.745 28.284-18.745 45.257v512c-16.974 0-33.253 6.743-45.255 18.745s-18.745 28.281-18.745 45.255v128c0 16.974 6.743 33.253 18.745 45.255s28.281 18.745 45.255 18.745zM192 64h640v512h-640v-512zM128 640h768v128h-768v-128zM384 288h256c16.973 0 33.254 6.741 45.257 18.743s18.743 28.284 18.743 45.257v64c0 16.973-6.741 33.254-18.743 45.257s-28.284 18.743-45.257 18.743h-256c-16.974 0-33.253-6.741-45.255-18.743s-18.745-28.284-18.745-45.257v-64c0-16.973 6.743-33.254 18.745-45.257s28.281-18.743 45.255-18.743zM384 352v64h256v-64h-256z" />
<glyph unicode="&#xe91f;" glyph-name="brightness-contrast" d="M544 896h-64v-96h64v96zM960 480h-96v-64h96v64zM480 0v96h64v-96h-64zM160 480h-96v-64h96v64zM174.397 739.727l45.255 45.255 67.882-67.882-45.255-45.255-67.882 67.882zM803.87 785.292l-67.883-67.882 45.257-45.255 67.883 67.882-45.257 45.255zM736.073 178.671l45.257 45.257 67.883-67.883-45.257-45.257-67.883 67.883zM175.040 155.84l67.84 68.16 45.12-45.44-67.84-67.84-45.12 45.12zM369.774 660.856c42.099 28.13 91.593 43.144 142.226 43.144 67.895 0 133.009-26.971 181.018-74.981 48.013-48.009 74.982-113.124 74.982-181.019 0-50.633-15.014-100.126-43.145-142.225s-68.109-74.914-114.889-94.289c-46.78-19.375-98.253-24.444-147.908-14.566-49.661 9.877-95.276 34.257-131.078 70.063-35.802 35.802-60.184 81.417-70.062 131.076-9.878 49.655-4.808 101.129 14.568 147.908s52.188 86.76 94.287 114.889zM376.236 312.235c36.007-36.006 84.842-56.235 135.764-56.235v384c-50.923 0-99.758-20.229-135.764-56.236s-56.236-84.842-56.236-135.764c0-50.923 20.229-99.759 56.236-135.765z" />
<glyph unicode="&#xe920;" glyph-name="brush-freehand" d="M145.777 498.863c18.419-12.301 40.074-18.867 62.224-18.863 14.713-0.043 29.287 2.837 42.88 8.465 13.593 5.632 25.933 13.901 36.307 24.337l128.813 128.777-45.267 45.248-128.797-128.778c-9.147-8.724-21.303-13.592-33.944-13.592s-24.797 4.867-33.944 13.592c-8.984 9.009-14.029 21.213-14.029 33.936s5.045 24.927 14.029 33.936l112.032 111.984c20.966 21.019 32.74 49.495 32.74 79.184s-11.774 58.165-32.74 79.184c-21.339 20.365-49.703 31.727-79.2 31.727s-57.861-11.362-79.2-31.727l-63.68-63.632 45.28-45.235 63.642 63.635c9.148 8.725 21.304 13.592 33.946 13.592s24.797-4.867 33.946-13.592c8.983-9.009 14.028-21.213 14.028-33.936s-5.045-24.927-14.028-33.936l-112.016-112c-15.664-15.662-26.33-35.617-30.652-57.342s-2.102-44.244 6.376-64.707c8.478-20.463 22.835-37.952 41.255-50.257zM832 894.781c33.711 0 66.125-12.995 90.5-36.281 11.887-11.884 21.321-25.993 27.755-41.523s9.745-32.175 9.745-48.984c0-16.81-3.311-33.455-9.745-48.984s-15.868-29.639-27.755-41.523l-611.91-611.886c-20.752-20.868-45.437-37.41-72.627-48.67s-56.344-17.015-85.773-16.93h-88.189v88.282c-0.080 29.427 5.677 58.573 16.937 85.76 11.26 27.183 27.8 51.866 48.663 72.614l611.899 611.844c24.375 23.287 56.789 36.281 90.5 36.281zM439.637 285.167l-90.516 90.513-67.885-67.895 90.515-90.505 67.886 67.887zM213.454 76.096c19.421 8.043 37.053 19.861 51.875 34.765l61.168 61.167-90.515 90.5-61.12-61.12c-14.903-14.822-26.717-32.452-34.761-51.87s-12.156-40.239-12.1-61.257v-24.282h24.189c21.021-0.060 41.844 4.053 61.265 12.096zM484.89 330.406l392.363 392.334c5.943 5.942 10.658 12.996 13.875 20.76s4.873 16.087 4.873 24.491c0 8.404-1.655 16.726-4.873 24.491s-7.932 14.819-13.875 20.761c-12.19 11.642-28.395 18.139-45.252 18.139-16.853 0-33.062-6.497-45.252-18.139l-392.372-392.319 90.514-90.517z" />
<glyph unicode="&#xe921;" glyph-name="building" d="M896 896h-384c-16.969-0.017-33.237-6.765-45.235-18.764s-18.748-28.268-18.765-45.236v-320h-320c-16.969-0.017-33.237-6.767-45.236-18.765s-18.747-28.267-18.764-45.235v-448h896v832c-0.021 16.968-6.767 33.235-18.765 45.233-12.002 11.998-28.267 18.747-45.235 18.767zM288 64v224h128v-224h-128zM896 64h-416v256c0 8.486-3.371 16.627-9.374 22.626-5.999 6.003-14.14 9.374-22.626 9.374h-192c-8.487 0-16.626-3.371-22.627-9.374-6.001-5.999-9.373-14.14-9.373-22.626v-256h-96v384h384v384h384v-768zM640 704h-64v-64h64v64zM768 704h64v-64h-64v64zM640 512h-64v-64h64v64zM768 512h64v-64h-64v64zM640 320.013h-64v-64h64v64zM768 320.013h64v-64h-64v64z" />
<glyph unicode="&#xe922;" glyph-name="calendar" d="M832 832h-128v64h-64v-64h-256v64h-64v-64h-128c-35.2 0-64-28.8-64-64v-640c0-35.2 28.8-64 64-64h640c35.2 0 64 28.8 64 64v640c0 35.2-28.8 64-64 64zM832 128h-640v448h640v-448zM832 640h-640v128h128v-64h64v64h256v-64h64v64h128v-128z" />
<glyph unicode="&#xe923;" glyph-name="camera" d="M96 128h832c8.486 0 16.627 3.371 22.626 9.374 6.003 5.999 9.374 14.14 9.374 22.626v544c0 8.487-3.371 16.626-9.374 22.627-5.999 6.001-14.14 9.373-22.626 9.373h-206.72l-54.72 81.6c-2.897 4.402-6.839 8.020-11.473 10.532s-9.818 3.841-15.087 3.868h-256c-5.271-0.027-10.453-1.356-15.087-3.868s-8.575-6.13-11.473-10.532l-54.72-81.6h-206.72c-8.487 0-16.626-3.372-22.627-9.373s-9.373-14.141-9.373-22.627v-544c0-8.486 3.372-16.627 9.373-22.626 6.001-6.003 14.141-9.374 22.627-9.374zM896 192h-768v480h192c5.271 0.027 10.453 1.356 15.087 3.868s8.575 6.13 11.473 10.532l54.72 81.6h221.44l54.72-81.6c2.897-4.402 6.839-8.020 11.473-10.532s9.818-3.841 15.087-3.868h192v-480zM405.331 288.358c31.576-21.099 68.696-32.358 106.669-32.358 50.923 0 99.759 20.228 135.765 56.235s56.235 84.843 56.235 135.765c0 37.973-11.26 75.093-32.358 106.669-21.099 31.575-51.085 56.183-86.165 70.716-35.085 14.532-73.69 18.334-110.933 10.926s-71.456-25.694-98.307-52.546c-26.852-26.852-45.138-61.064-52.546-98.307s-3.606-75.849 10.926-110.933c14.532-35.081 39.141-65.067 70.716-86.165zM440.887 554.428c21.047 14.065 45.798 21.572 71.113 21.572 33.95 0 66.505-13.486 90.509-37.49s37.491-56.564 37.491-90.51c0-25.314-7.505-50.065-21.572-71.113-14.063-21.052-34.057-37.457-57.442-47.142-23.39-9.69-49.126-12.224-73.958-7.287-24.828 4.941-47.637 17.131-65.537 35.034-17.901 17.899-30.092 40.708-35.031 65.536-4.939 24.832-2.404 50.569 7.284 73.954 9.688 23.39 26.094 43.382 47.144 57.447z" />
<glyph unicode="&#xe924;" glyph-name="carbon" d="M832 416h64v319.999c0 5.661-1.506 11.222-4.356 16.113s-6.95 8.938-11.878 11.727l-272 154.080c-4.809 2.719-10.24 4.147-15.765 4.147s-10.957-1.429-15.765-4.147l-272.001-154.080 31.533-55.68 256.233 145.136 240-135.952v-301.343zM416.234-21.918c4.809-2.722 10.24-4.156 15.766-4.16 5.525 0.004 10.957 1.434 15.765 4.156l272 154.082c4.928 2.79 9.028 6.835 11.878 11.725 2.85 4.894 4.356 10.453 4.356 16.115v320c0 5.662-1.506 11.221-4.356 16.111-2.85 4.894-6.95 8.939-11.878 11.729l-272 154.079c-4.809 2.719-10.24 4.147-15.765 4.147s-10.956-1.428-15.766-4.147l-272-154.079c-4.927-2.79-9.025-6.835-11.877-11.729-2.852-4.89-4.355-10.449-4.356-16.111v-320c0.002-5.662 1.505-11.221 4.357-16.111s6.95-8.939 11.876-11.729l272-154.078zM432 42.701l-240 135.953v282.688l240 135.953 240-135.953v-282.688l-240-135.953z" />
<glyph unicode="&#xe925;" glyph-name="caret-down" d="M768 576l-256-320-256 320h512z" />
<glyph unicode="&#xe926;" glyph-name="caret-left" d="M640 192l-320 256 320 256v-512z" />
<glyph unicode="&#xe927;" glyph-name="caret-right" d="M384 704l320-256-320-256v512z" />
<glyph unicode="&#xe928;" glyph-name="caret-sort" d="M512 960l-256-256h512l-256 256zM512-64l256 256h-512l256-256z" />
<glyph unicode="&#xe929;" glyph-name="caret-up" d="M256 320l256 320 256-320h-512z" />
<glyph unicode="&#xe92a;" glyph-name="carousel-horizontal" d="M704 128h-384c-16.974 0-33.253 6.741-45.255 18.743s-18.745 28.284-18.745 45.257v512c0 16.974 6.743 33.253 18.745 45.255s28.281 18.745 45.255 18.745h384c16.973 0 33.254-6.743 45.257-18.745s18.743-28.281 18.743-45.255v-512c0-16.973-6.741-33.254-18.743-45.257s-28.284-18.743-45.257-18.743zM320 704v-512h384v512h-384zM128 192h-128v64h128v384h-128v64h128c16.974 0 33.253-6.743 45.255-18.745s18.745-28.281 18.745-45.255v-384c0-16.973-6.743-33.254-18.745-45.257s-28.281-18.743-45.255-18.743zM896 192h128v64h-128v384h128v64h-128c-16.973 0-33.254-6.743-45.257-18.745s-18.743-28.281-18.743-45.255v-384c0-16.973 6.741-33.254 18.743-45.257s28.284-18.743 45.257-18.743z" />
<glyph unicode="&#xe92b;" glyph-name="carousel-vertical" d="M768 832v128h-64v-128h-384v128h-64v-128c0-16.974 6.743-33.253 18.745-45.255s28.281-18.745 45.255-18.745h384c16.973 0 33.254 6.743 45.257 18.745s18.743 28.281 18.743 45.255zM832 640v-384c0-16.973-6.741-33.254-18.743-45.257s-28.284-18.743-45.257-18.743h-512c-16.974 0-33.253 6.741-45.255 18.743s-18.745 28.284-18.745 45.257v384c0 16.974 6.743 33.253 18.745 45.255s28.281 18.745 45.255 18.745h512c16.973 0 33.254-6.743 45.257-18.745s18.743-28.281 18.743-45.255zM256 256h512v384h-512v-384zM768 64v-128h-64v128h-384v-128h-64v128c0 16.973 6.743 33.254 18.745 45.257s28.281 18.743 45.255 18.743h384c16.973 0 33.254-6.741 45.257-18.743s18.743-28.284 18.743-45.257z" />
<glyph unicode="&#xe92c;" glyph-name="categories" d="M230.72 739.519l-14.4 28.48h-88.32v-224h256v160h-135.68l-17.6 35.52zM96 831.999h140.16c5.964 0.041 11.82-1.584 16.909-4.694s9.207-7.58 11.891-12.906l23.040-46.4h128c8.487 0 16.627-3.372 22.626-9.373 6.003-6.001 9.374-14.141 9.374-22.627v-223.999c0-8.486-3.371-16.627-9.374-22.626-5.999-6.003-14.139-9.374-22.626-9.374h-320c-8.487 0-16.626 3.371-22.627 9.374-6.001 5.999-9.373 14.14-9.373 22.626v287.999c0 8.487 3.372 16.626 9.373 22.627s14.141 9.373 22.627 9.373zM742.72 739.519l-14.4 28.48h-88.32v-224h256v160h-135.68l-17.6 35.52zM608 831.999h140.16c5.965 0.041 11.819-1.584 16.909-4.694s9.207-7.58 11.891-12.906l23.040-46.4h128c8.486 0 16.627-3.372 22.626-9.373 6.003-6.001 9.374-14.141 9.374-22.627v-223.999c0-8.486-3.371-16.627-9.374-22.626-5.999-6.003-14.14-9.374-22.626-9.374h-320c-8.486 0-16.627 3.371-22.626 9.374-6.003 5.999-9.374 14.14-9.374 22.626v287.999c0 8.487 3.371 16.626 9.374 22.627 5.999 6.001 14.14 9.373 22.626 9.373zM216.32 352l14.4-28.48 17.6-35.52h135.68v-160h-256v224h88.32zM236.16 416h-140.16c-8.487 0-16.626-3.371-22.627-9.374-6.001-5.999-9.373-14.14-9.373-22.626v-288c0-8.486 3.372-16.627 9.373-22.63 6.001-5.999 14.141-9.37 22.627-9.37h320c8.487 0 16.627 3.371 22.626 9.37 6.003 6.003 9.374 14.144 9.374 22.63v224c0 8.486-3.371 16.627-9.374 22.626-5.999 6.003-14.139 9.374-22.626 9.374h-128l-23.040 46.4c-2.684 5.325-6.802 9.796-11.891 12.907-5.089 3.106-10.946 4.736-16.909 4.693zM742.72 323.52l-14.4 28.48h-88.32v-224h256v160h-135.68l-17.6 35.52zM608 416h140.16c5.965 0.043 11.819-1.587 16.909-4.693 5.090-3.11 9.207-7.582 11.891-12.907l23.040-46.4h128c8.486 0 16.627-3.371 22.626-9.374 6.003-5.999 9.374-14.14 9.374-22.626v-224c0-8.486-3.371-16.627-9.374-22.63-5.999-5.999-14.14-9.37-22.626-9.37h-320c-8.486 0-16.627 3.371-22.626 9.37-6.003 6.003-9.374 14.144-9.374 22.63v288c0 8.486 3.371 16.627 9.374 22.626 5.999 6.003 14.14 9.374 22.626 9.374z" />
<glyph unicode="&#xe92d;" glyph-name="cd-archive" d="M512 64c-75.947 0-150.191 22.519-213.339 64.717-63.148 42.193-112.367 102.165-141.431 172.331-29.064 70.17-36.669 147.379-21.852 221.867 14.816 74.489 51.389 142.911 105.092 196.615s122.126 90.276 196.615 105.092c74.487 14.817 151.697 7.212 221.867-21.852 70.165-29.064 130.138-78.282 172.331-141.431 42.197-63.148 64.717-137.392 64.717-213.339 0-101.845-40.457-199.514-112.469-271.531-72.017-72.013-169.685-112.469-271.531-112.469zM512 768c-63.292 0-125.158-18.768-177.782-53.93s-93.639-85.139-117.859-143.612c-24.22-58.471-30.557-122.813-18.21-184.888 12.347-62.071 42.825-119.091 87.577-163.844s101.772-75.23 163.844-87.578c62.076-12.348 126.417-6.012 184.887 18.21 58.475 24.222 108.45 65.237 143.612 117.858 35.162 52.625 53.931 114.492 53.931 177.783 0 84.868-33.715 166.262-93.726 226.274s-141.406 93.726-226.274 93.726zM512 256c-37.973 0-75.093 11.26-106.669 32.358-31.575 21.099-56.183 51.085-70.716 86.165-14.532 35.085-18.334 73.69-10.926 110.933s25.694 71.456 52.546 98.307c26.852 26.852 61.064 45.138 98.307 52.546s75.849 3.606 110.933-10.926c35.081-14.532 65.067-39.141 86.165-70.716 21.099-31.576 32.358-68.696 32.358-106.669 0-50.923-20.228-99.759-56.235-135.765s-84.843-56.235-135.765-56.235zM512 576c-25.314 0-50.065-7.507-71.113-21.572-21.050-14.065-37.456-34.057-47.144-57.447-9.688-23.386-12.223-49.122-7.284-73.954 4.939-24.828 17.129-47.637 35.031-65.536 17.9-17.903 40.709-30.093 65.537-35.034 24.832-4.937 50.569-2.402 73.958 7.287 23.386 9.685 43.379 26.091 57.442 47.142 14.067 21.047 21.572 45.798 21.572 71.113 0 33.946-13.487 66.505-37.491 90.51s-56.559 37.49-90.509 37.49zM576 448c0-35.345-28.655-64-64-64s-64 28.655-64 64c0 35.345 28.655 64 64 64s64-28.655 64-64z" />
<glyph unicode="&#xe92e;" glyph-name="center-circle" d="M960 480h-65.626c-7.667 90.357-47.040 175.091-111.164 239.212-64.119 64.121-148.855 103.497-239.211 111.162v65.626h-64v-65.626c-90.357-7.665-175.091-47.041-239.212-111.162s-103.497-148.855-111.162-239.212h-65.626v-64h65.626c7.665-90.355 47.041-175.091 111.162-239.211 64.121-64.124 148.855-103.497 239.212-111.164v-65.626h64v65.626c90.355 7.667 175.091 47.040 239.211 111.164 64.124 64.119 103.497 148.855 111.164 239.211h65.626v64zM544 129.626v126.374h-64v-126.374c-73.401 7.484-141.974 40.060-194.145 92.228-52.172 52.173-84.747 120.747-92.229 194.146h126.374v64h-126.374c7.482 73.401 40.058 141.974 92.229 194.145s120.744 84.747 194.145 92.229v-126.374h64v126.374c73.399-7.482 141.973-40.058 194.146-92.229 52.169-52.172 84.745-120.744 92.228-194.145h-126.374v-64h126.374c-7.484-73.399-40.060-141.973-92.228-194.146-52.173-52.169-120.747-84.745-194.146-92.228z" />
<glyph unicode="&#xe92f;" glyph-name="center-to-fit" d="M256 896h-192v-192h64v128h128v64zM768 896h192v-192h-64v128h-128v64zM64 0h192v64h-128v128h-64v-192zM768 0h192v192h-64v-128h-128v-64zM256 192h512c16.969 0.021 33.233 6.767 45.235 18.765 11.998 11.998 18.743 28.267 18.765 45.235v384c-0.021 16.968-6.767 33.235-18.765 45.233-12.002 11.998-28.267 18.747-45.235 18.767h-512c-16.968-0.020-33.235-6.769-45.233-18.767s-18.747-28.266-18.767-45.233v-384c0.020-16.969 6.769-33.237 18.767-45.235s28.266-18.743 45.233-18.765zM256 256v384h512v-384h-512z" />
<glyph unicode="&#xe930;" glyph-name="certificate" d="M128 128h384v-64h-384c-16.974 0-33.253 6.741-45.255 18.743s-18.745 28.284-18.745 45.257v640c0 16.974 6.743 33.253 18.745 45.255s28.281 18.745 45.255 18.745h768c16.973 0 33.254-6.743 45.257-18.745s18.743-28.281 18.743-45.255v-320h-64v320h-768v-640zM512 704h-320v-64h320v64zM192 576h320v-64h-320v64zM384 448h-192v-64h192v64zM768 416l61.184-118.494 130.816-19.012-96-86.494 24.674-128-120.674 72-120.67-72 24.67 128-96 86.494 134.4 19.012 57.6 118.494z" />
<glyph unicode="&#xe931;" glyph-name="chart-column" d="M864 64v704h-256v-704h-128v448h-256v-448h-96v832h-64v-832c0-16.973 6.743-33.254 18.745-45.257s28.281-18.743 45.255-18.743h832v64h-96zM416 64h-128v384h128v-384zM800 64h-128v640h128v-640z" />
<glyph unicode="&#xe932;" glyph-name="chart-line-data" d="M321.92 387.84c9.852-2.398 19.942-3.686 30.080-3.84 25.42 0.009 50.262 7.582 71.36 21.76l103.040-91.84c-8.162-15.501-12.954-32.55-14.054-50.035-1.105-17.485 1.506-35.004 7.654-51.405 6.46-18.586 17.118-35.43 31.142-49.229 14.029-13.798 31.049-24.179 49.737-30.332s38.545-7.915 58.027-5.146c19.482 2.765 38.059 9.988 54.298 21.103 16.235 11.11 29.692 25.818 39.322 42.978 9.63 17.156 15.177 36.305 16.205 55.953s-2.483 39.27-10.27 57.34c-7.787 18.074-19.631 34.103-34.62 46.852l81.28 162.88c15.863-3.58 32.286-3.921 48.286-1.007s31.249 9.024 44.834 17.967c23.070 14.079 41.088 35.098 51.482 60.046 10.389 24.948 12.617 52.546 6.362 78.838s-20.668 49.929-41.182 67.526c-20.51 17.597-46.067 28.25-73.003 30.432-26.94 2.182-53.875-4.217-76.954-18.282s-41.109-35.073-51.516-60.015c-10.406-24.942-12.651-52.538-6.413-78.833s20.642-49.942 41.143-67.551l-81.28-162.88c-8.828 1.941-17.843 2.906-26.88 2.88-25.421-0.009-50.261-7.582-71.36-21.76l-103.040 91.84c8.162 15.501 12.954 32.55 14.054 50.035 1.105 17.485-1.506 35.002-7.654 51.405-6.413 18.45-16.96 35.188-30.839 48.933s-30.72 24.13-49.232 30.362c-18.512 6.231-38.205 8.143-57.57 5.59s-37.889-9.505-54.153-20.323c-16.264-10.818-29.836-25.213-39.678-42.086s-15.692-35.773-17.101-55.256c-1.41-19.482 1.658-39.027 8.968-57.139s18.668-34.313 33.205-47.36l-137.6-258.24v736h-64v-832c0-16.973 6.743-33.254 18.745-45.257s28.281-18.743 45.255-18.743h832v64h-810.56l172.48 323.84zM832 704c12.659 0 25.033-3.753 35.558-10.786 10.522-7.032 18.726-17.028 23.569-28.722 4.847-11.695 6.114-24.563 3.644-36.978s-8.567-23.818-17.515-32.769c-8.951-8.951-20.356-15.046-32.772-17.516-12.412-2.47-25.28-1.202-36.975 3.642s-21.692 13.047-28.723 23.572c-7.031 10.525-10.786 22.898-10.786 35.556 0 16.974 6.741 33.253 18.743 45.255s28.284 18.745 45.257 18.745zM704 256c0-12.659-3.755-25.033-10.786-35.558-7.031-10.522-17.028-18.726-28.723-23.569-11.695-4.847-24.563-6.114-36.975-3.644-12.416 2.47-23.821 8.567-32.772 17.515-8.947 8.951-15.044 20.356-17.515 32.772-2.47 12.412-1.203 25.28 3.644 36.975 4.843 11.695 13.047 21.692 23.569 28.723 10.526 7.031 22.899 10.786 35.558 10.786 16.973 0 33.254-6.741 45.257-18.743s18.743-28.284 18.743-45.257zM352 576c12.658 0 25.032-3.753 35.556-10.786s18.728-17.028 23.572-28.722c4.844-11.696 6.112-24.564 3.642-36.976-2.47-12.416-8.565-23.821-17.516-32.772-8.951-8.947-20.354-15.044-32.769-17.515s-25.283-1.203-36.978 3.644c-11.694 4.843-21.69 13.047-28.722 23.569-7.033 10.526-10.786 22.899-10.786 35.558 0 16.973 6.743 33.253 18.745 45.255s28.281 18.745 45.255 18.745z" />
<glyph unicode="&#xe933;" glyph-name="chart-pie" d="M512 832c-75.947 0-150.191-22.521-213.339-64.716s-112.367-102.167-141.431-172.334c-29.064-70.167-36.669-147.377-21.852-221.865s51.389-142.912 105.092-196.617c53.704-53.7 122.126-90.274 196.615-105.092 74.487-14.814 151.697-7.211 221.867 21.854 70.165 29.065 130.138 78.281 172.331 141.431 42.197 63.147 64.717 137.391 64.717 213.338 0 101.843-40.457 199.515-112.469 271.529-72.017 72.014-169.685 112.471-271.531 112.471zM832 480h-288v286.4c73.732-7.032 142.746-39.424 195.264-91.651s85.295-121.056 92.736-194.749zM493.44 128c-81.044 3.767-157.631 38.182-214.265 96.273-56.635 58.095-89.089 135.531-90.797 216.644s27.459 159.85 81.598 220.275c54.14 60.425 129.21 98.031 210.024 105.207v-288c0-16.973 6.741-33.254 18.743-45.257s28.284-18.743 45.257-18.743h288c-8.512-82.223-48.516-157.965-111.629-211.354-63.108-53.385-144.431-80.282-226.931-75.046z" />
<glyph unicode="&#xe934;" glyph-name="chart-ring" d="M512 896c-88.606 0-175.222-26.275-248.895-75.502s-131.095-119.195-165.003-201.056c-33.908-81.862-42.78-171.937-25.494-258.841s59.954-166.733 122.608-229.385c62.654-62.656 142.48-105.323 229.384-122.607 86.905-17.289 176.983-8.418 258.843 25.493 81.86 33.907 151.829 91.328 201.054 165.001 49.229 73.673 75.503 160.29 75.503 248.896-0.132 118.776-47.377 232.649-131.362 316.636-83.989 83.987-197.862 131.23-316.638 131.364zM894.379 479.966h-193.259c-5.333 32.068-18.743 62.246-38.963 87.695-20.224 25.449-46.596 45.329-76.625 57.768-30.033 12.439-62.737 17.025-95.031 13.328s-63.117-15.556-89.559-34.46l-136.64 136.64c53.74 45.616 119.017 75.531 188.657 86.454 69.636 10.923 140.937 2.432 206.063-24.541s121.553-71.38 163.076-128.342c41.523-56.961 66.534-124.27 72.286-194.526l-0.004-0.017zM512 320c-25.314 0-50.065 7.505-71.113 21.572-21.050 14.063-37.456 34.057-47.144 57.442-9.688 23.39-12.223 49.126-7.284 73.958 4.939 24.828 17.13 47.637 35.031 65.537 17.9 17.901 40.709 30.092 65.537 35.031 24.832 4.939 50.569 2.404 73.958-7.284 23.386-9.688 43.379-26.094 57.442-47.144 14.067-21.047 21.572-45.798 21.572-71.113-0.038-33.937-13.534-66.47-37.534-90.466-23.996-23.996-56.529-37.495-90.466-37.534zM128 448c-0.035 90.755 32.245 178.558 91.056 247.68l136.64-136.624c-18.897-26.444-30.752-57.266-34.447-89.556s0.89-64.994 13.325-95.023c12.435-30.029 32.309-56.401 57.751-76.629 25.442-20.224 55.615-33.643 87.675-38.989v-193.276c-95.898 8.094-185.268 51.874-250.445 122.684s-101.416 163.494-101.555 259.733zM544 65.6v193.28c39.232 6.699 75.418 25.412 103.565 53.555 28.143 28.147 46.857 64.333 53.555 103.565h193.28c-7.667-90.364-47.044-175.104-111.172-239.228-64.124-64.124-148.864-103.505-239.228-111.172z" />
<glyph unicode="&#xe935;" glyph-name="chart-stacked" d="M896 64v704h-256v-704h-128v448h-256v-448h-128v832h-64v-832c0-16.973 6.743-33.254 18.745-45.257s28.281-18.743 45.255-18.743h832v64h-64zM704 704h128v-320h-128v320zM320 448h128v-192h-128v192z" />
<glyph unicode="&#xe936;" glyph-name="chart-treemap" d="M896 896h-768c-16.968-0.020-33.235-6.769-45.233-18.767s-18.747-28.266-18.767-45.233v-768c0.020-16.969 6.769-33.233 18.767-45.235 11.998-11.998 28.266-18.743 45.233-18.765h768c16.969 0.021 33.233 6.767 45.235 18.765 11.998 12.002 18.743 28.267 18.765 45.235v768c-0.021 16.968-6.767 33.235-18.765 45.233-12.002 11.998-28.267 18.747-45.235 18.767zM896 512h-160v320h160v-320zM512 832h160v-320h-160v320zM448 832v-512h-320v512h320zM128 256h320v-192h-320v192zM512 64v384h384v-384h-384z" />
<glyph unicode="&#xe937;" glyph-name="chart-venn-diagram" d="M640 768c-44.070 0.022-87.663-9.132-128-26.88-40.337 17.748-83.93 26.902-128 26.88-84.869 0-166.263-33.714-226.274-93.726s-93.726-141.406-93.726-226.274c0-84.868 33.714-166.263 93.726-226.274s141.405-93.726 226.274-93.726c44.070-0.021 87.663 9.131 128 26.88 40.337-17.749 83.93-26.901 128-26.88 84.868 0 166.263 33.715 226.274 93.726s93.726 141.406 93.726 226.274c0 84.868-33.715 166.263-93.726 226.274s-141.406 93.726-226.274 93.726zM384 192c-67.895 0-133.010 26.97-181.019 74.982-48.009 48.009-74.981 113.122-74.981 181.018s26.971 133.010 74.981 181.019c48.009 48.009 113.124 74.981 181.019 74.981 18.954-0.018 37.845-2.165 56.32-6.4-37.374-29.984-67.537-67.979-88.264-111.18s-31.487-90.505-31.487-138.42c0-47.915 10.76-95.219 31.487-138.419s50.89-81.195 88.264-111.181c-18.475-4.237-37.366-6.383-56.32-6.4zM640 448c-0.047-44.894-11.895-88.986-34.364-127.851-22.464-38.869-54.758-71.142-93.636-93.589-38.793 22.502-70.997 54.805-93.38 93.666-22.385 38.865-34.167 82.927-34.167 127.774s11.782 88.91 34.167 127.773c22.383 38.863 54.587 71.163 93.38 93.667 38.878-22.447 71.172-54.722 93.636-93.589 22.468-38.867 34.317-82.957 34.364-127.851zM640 192c-18.953 0.017-37.845 2.163-56.32 6.4 37.376 29.986 67.537 67.981 88.265 111.181s31.488 90.505 31.488 138.419c0 47.915-10.761 95.219-31.488 138.42s-50.889 81.196-88.265 111.18c18.475 4.235 37.367 6.382 56.32 6.4 67.895 0 133.009-26.971 181.018-74.981 48.013-48.009 74.982-113.124 74.982-181.019s-26.97-133.009-74.982-181.018c-48.009-48.013-113.122-74.982-181.018-74.982z" />
<glyph unicode="&#xe938;" glyph-name="chat-bot" d="M512 32l55.543-32 109.726 192h154.731c16.811-0.004 33.455 3.307 48.986 9.737 15.531 6.434 29.645 15.859 41.532 27.746s21.312 26.001 27.746 41.532c6.43 15.531 9.741 32.175 9.737 48.986v448c0.004 16.811-3.302 33.457-9.732 48.989s-15.859 29.644-27.746 41.531c-11.887 11.887-26.001 21.315-41.532 27.746s-32.179 9.738-48.99 9.733h-640c-16.811 0.005-33.457-3.302-48.989-9.733s-29.644-15.859-41.531-27.746c-11.887-11.887-21.315-25.999-27.746-41.531s-9.738-32.179-9.733-48.989v-448c-0.003-16.811 3.306-33.455 9.737-48.986s15.86-29.645 27.747-41.532c11.887-11.887 25.998-21.312 41.529-27.746 15.531-6.43 32.177-9.741 48.987-9.737h288v64h-288c-8.409-0.013-16.737 1.63-24.509 4.843s-14.832 7.923-20.778 13.871c-5.946 5.943-10.659 13.005-13.871 20.779-3.212 7.77-4.857 16.098-4.843 24.508v448c-0.015 8.409 1.631 16.737 4.843 24.509s7.925 14.832 13.871 20.778c5.946 5.946 13.007 10.659 20.778 13.871s16.1 4.857 24.509 4.843h640c8.41 0.015 16.738-1.631 24.508-4.843 7.774-3.211 14.835-7.925 20.779-13.871 5.948-5.946 10.658-13.007 13.871-20.778s4.855-16.1 4.843-24.509v-448c0.013-8.41-1.63-16.738-4.843-24.508-3.213-7.774-7.923-14.835-13.871-20.779-5.943-5.948-13.005-10.658-20.779-13.871-7.77-3.213-16.098-4.855-24.508-4.843h-192l-128-224zM384 704.001c-12.658 0-25.032-3.753-35.556-10.786s-18.728-17.028-23.572-28.722c-4.844-11.695-6.112-24.563-3.642-36.977s8.565-23.819 17.516-32.769c8.951-8.951 20.354-15.046 32.769-17.516s25.283-1.202 36.977 3.642c11.694 4.844 21.69 13.047 28.722 23.572s10.786 22.898 10.786 35.556c0.081 8.428-1.515 16.787-4.702 24.59s-7.898 14.891-13.858 20.85c-5.96 5.96-13.048 10.671-20.85 13.858s-16.162 4.785-24.59 4.703zM604.442 693.215c10.526 7.033 22.899 10.786 35.558 10.786 8.427 0.083 16.789-1.516 24.589-4.703 7.804-3.187 14.891-7.898 20.851-13.858s10.671-13.048 13.858-20.85c3.187-7.802 4.783-16.162 4.702-24.59 0-12.658-3.755-25.032-10.786-35.556s-17.028-18.728-28.723-23.572c-11.695-4.844-24.563-6.111-36.975-3.642-12.416 2.47-23.821 8.565-32.772 17.516-8.947 8.951-15.044 20.354-17.515 32.769s-1.203 25.283 3.644 36.977c4.843 11.694 13.047 21.69 23.569 28.722zM406.071 378.569c32.572-17.472 68.966-26.598 105.929-26.569 36.962-0.030 73.357 9.097 105.929 26.569s60.309 42.739 80.725 73.549l-53.312 35.439c-14.596-22.003-34.411-40.051-57.677-52.535-23.266-12.489-49.263-19.021-75.665-19.021-26.406 0-52.399 6.532-75.665 19.021-23.266 12.484-43.081 30.532-57.679 52.535l-53.312-35.439c20.42-30.81 48.156-56.077 80.728-73.549z" />
<glyph unicode="&#xe939;" glyph-name="chat-launch" d="M704 530.752l192 192v-146.752h64v256h-256v-64h146.752l-192-192 45.248-45.248zM384 256h-256v448h384v64h-384c-16.974 0-33.253-6.743-45.255-18.745s-18.745-28.281-18.745-45.255v-448c0-16.973 6.743-33.254 18.745-45.257s28.281-18.743 45.255-18.743h256v64zM380.649 38.4l51.201-38.4 144.149 192h192c16.969 0.021 33.233 6.767 45.235 18.765 11.998 11.998 18.743 28.267 18.765 45.235v192h-64v-192h-224l-163.351-217.6z" />
<glyph unicode="&#xe93a;" glyph-name="chat" d="M567.68 0l-55.68 32 128 224h192c16.973 0 33.254 6.741 45.257 18.743s18.743 28.284 18.743 45.257v384c0 16.974-6.741 33.253-18.743 45.255s-28.284 18.745-45.257 18.745h-640c-16.974 0-33.253-6.743-45.255-18.745s-18.745-28.281-18.745-45.255v-384c0-16.973 6.743-33.254 18.745-45.257s28.281-18.743 45.255-18.743h288v-64h-288c-33.948 0-66.505 13.487-90.51 37.491s-37.49 56.563-37.49 90.509v384c0 33.948 13.486 66.505 37.49 90.51s56.562 37.49 90.51 37.49h640c33.946 0 66.505-13.486 90.509-37.49s37.491-56.562 37.491-90.51v-384c0-33.946-13.487-66.505-37.491-90.509s-56.563-37.491-90.509-37.491h-154.88l-109.44-192zM768 640h-512v-64h512v64zM256 448h320v-64h-320v64z" />
<glyph unicode="&#xe93b;" glyph-name="checkbox-checked" d="M192 832h640c16.973 0 33.254-6.743 45.257-18.745s18.743-28.281 18.743-45.255v-640c0-16.973-6.741-33.254-18.743-45.257s-28.284-18.743-45.257-18.743h-640c-16.974 0-33.253 6.741-45.255 18.743s-18.745 28.284-18.745 45.257v640c0 16.974 6.743 33.253 18.745 45.255s28.281 18.745 45.255 18.745zM192 768v-640h640v640h-640zM288 430.72l160-158.72 288 285.44-50.88 50.56-237.12-235.2-109.12 107.2-50.88-49.28z" />
<glyph unicode="&#xe93c;" glyph-name="checkbox" d="M832 832h-640c-16.974 0-33.253-6.743-45.255-18.745s-18.745-28.281-18.745-45.255v-640c0-16.973 6.743-33.254 18.745-45.257s28.281-18.743 45.255-18.743h640c16.973 0 33.254 6.741 45.257 18.743s18.743 28.284 18.743 45.257v640c0 16.974-6.741 33.253-18.743 45.255s-28.284 18.745-45.257 18.745zM192 128v640h640v-640h-640z" />
<glyph unicode="&#xe93d;" glyph-name="checkmark-outline" d="M263.105 820.498c73.673 49.227 160.289 75.502 248.895 75.502 118.818 0 232.768-47.2 316.783-131.216 84.019-84.016 131.217-197.967 131.217-316.784 0-88.606-26.274-175.223-75.503-248.896-49.225-73.673-119.194-131.093-201.054-165.001-81.86-33.911-171.938-42.782-258.843-25.493-86.903 17.284-166.73 59.951-229.384 122.607-62.654 62.652-105.322 142.481-122.608 229.385s-8.414 176.979 25.494 258.841c33.908 81.861 91.329 151.829 165.003 201.056zM298.661 128.717c63.149-42.197 137.392-64.717 213.339-64.717 101.845 0 199.514 40.457 271.531 112.469 72.013 72.017 112.469 169.69 112.469 271.531 0 75.947-22.519 150.191-64.717 213.339-42.193 63.148-102.165 112.367-172.331 141.431-70.17 29.064-147.379 36.668-221.867 21.852-74.489-14.817-142.911-51.389-196.615-105.093s-90.276-122.126-105.092-196.615c-14.817-74.487-7.212-151.697 21.852-221.867 29.064-70.165 78.282-130.138 141.431-172.331zM288 434.786l160-160.034 288 287.968-45.282 45.28-242.718-242.752-114.784 114.752-45.216-45.214z" />
<glyph unicode="&#xe93e;" glyph-name="checkmark" d="M416 192l-288 288 45.248 45.248 242.752-242.718 434.752 434.718 45.248-45.248-480-480z" />
<glyph unicode="&#xe93f;" glyph-name="chevron-down" d="M512 256l-320 320 44.8 44.8 275.2-275.2 275.2 275.2 44.8-44.8-320-320z" />
<glyph unicode="&#xe940;" glyph-name="chevron-left" d="M320 448l320 320 44.8-44.8-275.2-275.2 275.2-275.2-44.8-44.8-320 320z" />
<glyph unicode="&#xe941;" glyph-name="chevron-mini" d="M992 352v-384h-384l384 384z" />
<glyph unicode="&#xe942;" glyph-name="chevron-right" d="M704 448l-320.002-320-44.8 44.8 275.202 275.2-275.202 275.2 44.8 44.8 320.002-320z" />
<glyph unicode="&#xe943;" glyph-name="chevron-sort-down" d="M512 64l-224 224 44.8 44.8 179.2-179.2 179.2 179.2 44.8-44.8-224-224z" />
<glyph unicode="&#xe944;" glyph-name="chevron-sort-up" d="M512 832l224-224-44.8-44.8-179.2 179.2-179.2-179.2-44.8 44.8 224 224z" />
<glyph unicode="&#xe945;" glyph-name="chevron-sort" d="M736 608l-224 224-224-224 45.12-45.12 178.88 178.56 178.88-178.56 45.12 45.12zM288 288l224-224 224 224-45.12 45.12-178.88-178.56-178.88 178.56-45.12-45.12z" />
<glyph unicode="&#xe946;" glyph-name="chevron-up" d="M512 640l320-320-44.8-44.8-275.2 275.2-275.2-275.2-44.8 44.8 320 320z" />
<glyph unicode="&#xe947;" glyph-name="circle-dash" d="M374.401 873.6l19.2-60.8c38.147 12.843 78.147 19.33 118.399 19.2v64c-46.822 0.639-93.396-6.943-137.599-22.4zM150.401 710.4c26.948 37.608 59.296 71.034 96 99.2l38.4-51.2c-31.684-24.715-59.697-53.806-83.2-86.4l-51.2 38.4zM86.401 585.6l60.8-19.2c-12.844-38.148-19.33-78.148-19.2-118.4h-64c-0.639 46.822 6.943 93.396 22.4 137.6zM86.401 307.2c14.841-44.621 36.424-86.707 64-124.8l51.2 38.4c-23.133 32.393-41.457 67.959-54.4 105.6l-60.8-19.2zM374.4 22.4c-44.622 14.839-86.709 36.425-124.8 64l38.4 51.2c32.391-23.134 67.959-41.459 105.6-54.4l-19.2-60.8zM873.6 185.6c-28.092-37.692-61.508-71.108-99.2-99.2l-38.4 51.2c33.404 23.799 62.605 52.996 86.4 86.4l51.2-38.4zM876.8 329.6l60.8-19.2c13.922 44.582 21.461 90.906 22.4 137.6h-64c0.132-40.252-6.357-80.252-19.2-118.4zM870.4 713.6c27.575-38.091 49.161-80.178 64-124.8l-60.8-19.2c-12.941 37.641-31.266 73.209-54.4 105.6l51.2 38.4zM771.2 812.8c-38.089 27.576-80.179 49.159-124.8 64l-19.2-60.8c37.641-12.943 73.212-31.267 105.6-54.4l38.4 51.2zM630.4 83.2l19.2-60.8c-44.983-12.126-91.089-19.631-137.6-22.4v64c40.252-0.132 80.252 6.357 118.4 19.2z" />
<glyph unicode="&#xe948;" glyph-name="circle-measurement" d="M263.105 75.503c73.673-49.229 160.289-75.503 248.895-75.503 118.818 0 232.768 47.198 316.783 131.217 84.019 84.015 131.217 197.965 131.217 316.783 0 88.606-26.274 175.222-75.503 248.895-49.225 73.673-119.194 131.095-201.054 165.003s-171.938 42.78-258.843 25.494c-86.903-17.286-166.73-59.954-229.384-122.608s-105.322-142.48-122.608-229.384c-17.286-86.905-8.414-176.983 25.494-258.843s91.329-151.829 165.003-201.054zM298.661 767.284c63.149 42.194 137.392 64.716 213.339 64.716 101.845 0 199.514-40.457 271.531-112.471 72.013-72.014 112.469-169.686 112.469-271.529 0-75.947-22.519-150.191-64.717-213.338-42.193-63.151-102.165-112.367-172.331-141.431-70.17-29.065-147.379-36.668-221.867-21.854-74.489 14.818-142.911 51.392-196.615 105.092-53.703 53.705-90.276 122.129-105.092 196.617s-7.212 151.697 21.852 221.865c29.064 70.167 78.282 130.139 141.431 172.334zM672 448v114.88l-274.88-274.88h114.88v-64h-224v224h64v-114.88l274.88 274.88h-114.88v64h224v-224h-64z" />
<glyph unicode="&#xe949;" glyph-name="clean" d="M523.179 396.881c13.483-23.394 20.685-49.877 20.915-76.881 0-1.719 1.873-177.404 115.145-262.4 5.372-4.028 9.344-9.647 11.345-16.060 2.001-6.409 1.937-13.286-0.188-19.661-2.125-6.37-6.199-11.913-11.648-15.838-5.449-3.93-11.994-6.042-18.709-6.042h-479.718c-8.27-0.009-16.221 3.187-22.186 8.917-5.966 5.726-9.483 13.538-9.814 21.803-0.438 11.452-9.715 281.6 110.080 397.154 21.717 21.406 48.454 37.022 77.766 45.423 29.312 8.405 60.262 9.323 90.020 2.671l242.424 420.032 55.39-32-236.847-410.466c23.245-13.739 42.547-33.254 56.026-56.653zM450.214 387.772c-18.325 17.894-42.842 28.041-68.454 28.322-16.032 1.655-32.232 0.111-47.661-4.548s-29.777-12.339-42.211-22.592l188.781-83.955c-0.478 8.346-0.538 13.781-0.538 15.002-0.879 25.6-11.597 49.873-29.918 67.772zM448 160c4.514-36.22 20.809-69.952 46.383-96h68.715c-36.058 49.506-60.762 106.351-72.354 166.485l-241.056 107.2c-48.407-85.137-56.695-214.921-57.687-273.685h85.286c-12.076 41.69-19.22 84.646-21.286 128h64c2.674-43.482 10.682-86.473 23.843-128h71.146c-18.051 28.971-28.694 61.943-30.989 96h64zM832 320h-192v64h192v-64zM960 64h-192v64h192v-64zM704 192h192v64h-192v-64z" />
<glyph unicode="&#xe94a;" glyph-name="close-outline" d="M64 448c0 249.6 198.4 448 448 448s448-198.4 448-448c0-249.6-198.4-448-448-448s-448 198.4-448 448zM128 448c0-211.2 172.8-384 384-384s384 172.8 384 384c0 211.2-172.8 384-384 384s-384-172.8-384-384zM512 396.8l172.8-172.8 51.2 51.2-172.8 172.8 172.8 172.8-51.2 51.2-172.8-172.8-172.8 172.8-51.2-51.2 172.8-172.8-172.8-172.8 51.2-51.2 172.8 172.8z" />
<glyph unicode="&#xe94b;" glyph-name="close" d="M768 659.2l-44.8 44.8-211.2-211.2-211.2 211.2-44.8-44.8 211.2-211.2-211.2-211.2 44.8-44.8 211.2 211.2 211.2-211.2 44.8 44.8-211.2 211.2 211.2 211.2z" />
<glyph unicode="&#xe94c;" glyph-name="cloud-download" d="M736 256h16c51.315 0.324 100.698 19.61 138.658 54.14 37.956 34.534 61.811 81.882 66.97 132.937 5.163 51.055-8.734 102.217-39.010 143.648-30.281 41.431-74.803 70.207-125.018 80.795-13.815 64.431-49.306 122.177-100.553 163.601s-115.153 64.021-181.047 64.021c-65.894 0-129.798-22.597-181.045-64.021s-86.739-99.17-100.554-163.601c-50.212-10.588-94.737-39.364-125.016-80.795s-44.173-92.593-39.012-143.648c5.161-51.055 29.014-98.402 66.971-132.937 37.958-34.53 87.342-53.815 138.657-54.14h16v64h-16c-38.191-1.527-75.425 12.177-103.511 38.106-28.085 25.924-44.722 61.943-46.249 100.134s12.178 75.425 38.103 103.511c25.925 28.085 61.945 44.722 100.137 46.249h27.52l0.64 26.24c7.099 53.874 33.54 103.33 74.397 139.156s93.342 55.579 147.682 55.579c54.34 0 106.829-19.753 147.682-55.579 40.858-35.826 67.298-85.282 74.398-139.156l3.2-26.24h27.52c38.191-1.527 74.21-18.164 100.139-46.249 25.924-28.086 39.629-65.32 38.101-103.511s-18.163-74.21-46.251-100.134c-28.083-25.929-65.318-39.633-103.509-38.106h-16v-64zM544 512v-389.44l82.88 82.56 45.12-45.12-160-160-160 160 45.12 45.12 82.88-82.56v389.44h64z" />
<glyph unicode="&#xe94d;" glyph-name="cloud-lightning" d="M371.519 2.56c-6.549 2.765-11.991 7.629-15.467 13.828s-4.79 13.385-3.733 20.412l58.24 379.2h-154.56c-4.9-0.132-9.765 0.862-14.219 2.91s-8.379 5.090-11.471 8.892c-3.092 3.802-5.269 8.265-6.363 13.043s-1.076 9.745 0.053 14.515l96 416c1.689 7.159 5.793 13.518 11.622 18.006s13.025 6.831 20.378 6.634h320.001c4.779 0.016 9.502-1.039 13.824-3.088 4.318-2.049 8.124-5.040 11.136-8.752 3.055-3.755 5.214-8.153 6.323-12.864s1.135-9.613 0.077-14.336l-55.36-248.96h152c5.995 0.012 11.874-1.662 16.969-4.83 5.090-3.168 9.19-7.704 11.831-13.090 2.291-5.169 3.174-10.854 2.556-16.475s-2.714-10.978-6.076-15.525l-416.001-544c-2.812-4.169-6.566-7.616-10.958-10.061s-9.299-3.823-14.322-4.019c-4.282 0.081-8.512 0.947-12.48 2.56zM568 544l64 288h-254.401l-81.28-352h189.121l-50.88-328.96 301.44 392.96h-168z" />
<glyph unicode="&#xe94e;" glyph-name="cloud-satellite" d="M495.876-27.657c4.894-2.85 10.458-4.352 16.124-4.343 5.666-0.009 11.23 1.493 16.124 4.343l384 224c4.834 2.82 8.841 6.857 11.627 11.712 2.786 4.851 4.25 10.351 4.25 15.945v256h-64v-237.628l-352-205.342-352 205.342v411.253l352 205.328 367.876-214.595 32.247 55.283-384 224c-4.894 2.855-10.458 4.36-16.124 4.36s-11.23-1.504-16.124-4.36l-384.001-224c-4.832-2.816-8.841-6.851-11.627-11.702s-4.25-10.346-4.248-15.94v-448c0-5.594 1.465-11.093 4.25-15.945 2.785-4.855 6.793-8.892 11.625-11.712l384.001-224zM736 512c35.345 0 64 28.654 64 64s-28.655 64-64 64c-35.345 0-64-28.654-64-64s28.655-64 64-64zM440.887 341.572c21.047-14.067 45.798-21.572 71.113-21.572 33.916 0.098 66.415 13.619 90.398 37.602s37.504 56.482 37.602 90.398c0 25.314-7.505 50.065-21.572 71.113-14.063 21.050-34.057 37.456-57.442 47.144-23.39 9.688-49.126 12.223-73.958 7.284-24.828-4.939-47.637-17.129-65.537-35.031-17.901-17.9-30.092-40.709-35.031-65.537-4.939-24.832-2.404-50.569 7.284-73.958 9.688-23.386 26.094-43.379 47.144-57.442zM476.442 501.214c10.526 7.031 22.899 10.786 35.558 10.786 16.96-0.051 33.207-6.81 45.201-18.799 11.989-11.994 18.748-28.241 18.799-45.201 0-12.659-3.755-25.033-10.786-35.558-7.031-10.522-17.028-18.726-28.723-23.569-11.695-4.847-24.563-6.114-36.975-3.644-12.416 2.47-23.821 8.567-32.772 17.515-8.947 8.951-15.044 20.356-17.515 32.772-2.47 12.412-1.199 25.28 3.644 36.975s13.047 21.692 23.569 28.723zM352 320c0-35.345-28.654-64-64-64s-64 28.655-64 64c0 35.345 28.654 64 64 64s64-28.655 64-64z" />
<glyph unicode="&#xe94f;" glyph-name="cloud-upload" d="M736 256h16c51.315 0.324 100.698 19.61 138.658 54.14 37.956 34.534 61.811 81.882 66.97 132.937 5.163 51.055-8.734 102.217-39.010 143.648-30.281 41.431-74.803 70.207-125.018 80.795-13.815 64.431-49.306 122.177-100.553 163.601s-115.153 64.021-181.047 64.021c-65.894 0-129.798-22.597-181.045-64.021s-86.739-99.17-100.554-163.601c-50.212-10.588-94.737-39.364-125.016-80.795s-44.173-92.593-39.012-143.648c5.161-51.055 29.014-98.402 66.972-132.937 37.958-34.53 87.341-53.815 138.656-54.14h16v64h-16c-38.191-1.527-75.425 12.177-103.511 38.106-28.085 25.924-44.722 61.943-46.249 100.134s12.178 75.425 38.103 103.511c25.925 28.085 61.945 44.722 100.137 46.249h27.52l0.64 26.24c7.099 53.874 33.54 103.33 74.397 139.156s93.342 55.579 147.682 55.579c54.34 0 106.829-19.753 147.682-55.579 40.858-35.826 67.298-85.282 74.398-139.156l3.2-26.24h27.52c38.191-1.527 74.21-18.164 100.139-46.249 25.924-28.086 39.629-65.32 38.101-103.511s-18.163-74.21-46.251-100.134c-28.083-25.929-65.318-39.633-103.509-38.106h-16v-64zM397.121 338.88l-45.12 45.12 159.999 160 160-160-45.12-45.12-82.88 82.56v-389.44h-64v389.44l-82.879-82.56z" />
<glyph unicode="&#xe950;" glyph-name="cobb-angle" d="M672 674.247l-248.32 66.24v0.64c-16.362 4.356-30.331 15.020-38.848 29.654s-10.887 32.048-6.592 48.426l16.64 61.76c4.422 16.374 15.163 30.324 29.863 38.784 14.702 8.46 32.157 10.739 48.537 6.336l249.6-66.24c16.375-4.422 30.323-15.163 38.784-29.863s10.739-32.157 6.336-48.537l-17.6-62.080c-3.674-13.638-11.75-25.678-22.98-34.244s-24.977-13.178-39.1-13.116c-5.508 0.117-10.982 0.869-16.32 2.24zM704 797.767l-248.32 66.24-15.36-61.76 247.040-66.24 16.64 61.76zM640 416v64c0 16.973-6.741 33.254-18.743 45.257-12.002 12-28.284 18.743-45.257 18.743h-256c-16.974 0-33.253-6.743-45.255-18.743-12.002-12.002-18.745-28.284-18.745-45.257v-64c0-16.973 6.743-33.254 18.745-45.257s28.281-18.743 45.255-18.743h256c16.973 0 33.254 6.741 45.257 18.743s18.743 28.284 18.743 45.257zM320 480h256v-64h-256v64zM749.44 176.653c-4.361 16.222-14.929 30.076-29.414 38.579-14.49 8.499-31.735 10.965-48.026 6.861l-247.36-66.24c-16.362-4.356-30.331-15.019-38.848-29.653s-10.887-32.051-6.592-48.427l16.64-61.76c3.495-13.547 11.333-25.574 22.313-34.244s24.5-13.5 38.487-13.756c5.602 0.256 11.17 1.007 16.64 2.24l247.36 66.24c16.375 4.42 30.323 15.164 38.784 29.862s10.739 32.158 6.336 48.538l-16.32 61.76zM456.64 32.013l-16.32 62.080 247.040 65.92 16.64-61.44-247.36-66.56zM512 288h-64v-64h64v64zM448 672h64v-64h-64v64z" />
<glyph unicode="&#xe951;" glyph-name="code" d="M397.392 144.525l167.054 623.445 61.82-16.564-167.053-623.448-61.821 16.567zM32 448l224 224 45.12-45.12-178.56-178.88 178.56-178.88-45.12-45.12-224 224zM992 448l-224-224-45.12 45.12 178.56 178.88-178.56 178.88 45.12 45.12 224-224z" />
<glyph unicode="&#xe952;" glyph-name="collaborate" d="M327.113 661.572c-21.050-14.065-45.797-21.572-71.113-21.572-33.948 0-66.505 13.486-90.51 37.49s-37.49 56.562-37.49 90.51c0 25.316 7.507 50.063 21.572 71.113s34.056 37.455 57.445 47.144c23.389 9.688 49.126 12.223 73.955 7.284s47.637-17.129 65.538-35.031c17.901-17.901 30.092-40.709 35.031-65.538s2.404-50.566-7.284-73.955c-9.688-23.389-26.094-43.38-47.144-57.445zM291.556 821.214c-10.525 7.033-22.898 10.786-35.556 10.786-16.974 0-33.253-6.743-45.255-18.745s-18.745-28.281-18.745-45.255c0-12.658 3.753-25.032 10.786-35.557s17.028-18.728 28.722-23.572c11.695-4.844 24.563-6.112 36.977-3.642s23.819 8.565 32.769 17.516c8.951 8.951 15.046 20.354 17.516 32.769s1.202 25.283-3.642 36.977c-4.844 11.695-13.047 21.69-23.572 28.722zM768 576v32c0 21.012-4.139 41.817-12.181 61.229-8.038 19.412-19.823 37.050-34.679 51.908-14.861 14.857-32.499 26.643-51.908 34.684-19.413 8.041-40.218 12.179-61.231 12.179h-96v64h96c59.409 0 116.382-23.6 158.391-65.608s65.609-98.983 65.609-158.392v-32h-64zM192 320v-32c0-42.436 16.857-83.132 46.863-113.135 30.006-30.007 70.703-46.865 113.137-46.865h96v-64h-96c-59.409 0-116.384 23.599-158.392 65.609s-65.608 98.982-65.608 158.391v32h64zM352 608h-192c-25.461 0-49.879-10.114-67.882-28.118s-28.118-42.421-28.118-67.882v-64h64v64c0 8.486 3.372 16.627 9.373 22.627s14.141 9.373 22.627 9.373h192c8.487 0 16.626-3.372 22.627-9.373s9.373-14.141 9.373-22.627v-64h64v64c0 25.461-10.116 49.879-28.118 67.882-18.004 18.004-42.421 28.118-67.882 28.118zM672 160c-25.459 0-49.877-10.116-67.883-28.117-18.001-18.005-28.117-42.423-28.117-67.883v-64h64v64c0 8.486 3.371 16.627 9.374 22.626 5.999 6.003 14.14 9.374 22.626 9.374h192c8.486 0 16.627-3.371 22.626-9.374 6.003-5.999 9.374-14.14 9.374-22.626v-64h64v64c0 25.459-10.116 49.877-28.117 67.883-18.005 18.001-42.423 28.117-67.883 28.117h-192zM661.572 248.887c-14.067 21.047-21.572 45.798-21.572 71.113 0 33.946 13.487 66.505 37.491 90.509s56.563 37.491 90.509 37.491c25.314 0 50.065-7.505 71.113-21.572 21.052-14.063 37.457-34.057 47.142-57.446 9.69-23.386 12.224-49.122 7.287-73.954-4.941-24.828-17.131-47.637-35.034-65.536-17.899-17.903-40.708-30.093-65.536-35.034-24.832-4.937-50.569-2.402-73.954 7.287-23.39 9.685-43.383 26.091-57.446 47.142zM821.214 284.442c7.031 10.526 10.786 22.899 10.786 35.558 0 16.973-6.741 33.254-18.743 45.257s-28.284 18.743-45.257 18.743c-12.659 0-25.033-3.755-35.558-10.786-10.522-7.031-18.726-17.028-23.569-28.723-4.847-11.695-6.114-24.563-3.644-36.975 2.47-12.416 8.567-23.821 17.515-32.772 8.951-8.947 20.356-15.044 32.772-17.515 12.412-2.47 25.28-1.203 36.975 3.644 11.695 4.843 21.692 13.047 28.723 23.569z" />
<glyph unicode="&#xe953;" glyph-name="collapse-all" d="M960 480h-64v256h-480v64h480c16.969-0.020 33.233-6.769 45.235-18.767 11.998-11.998 18.743-28.266 18.765-45.233v-256zM800 320h-64v256h-480v64h480c16.969-0.020 33.233-6.769 45.235-18.767 11.998-11.998 18.743-28.266 18.765-45.233v-256zM128 96h448c16.969 0.021 33.237 6.767 45.235 18.765s18.743 28.267 18.765 45.235v256c-0.021 16.969-6.767 33.233-18.765 45.235-11.998 11.998-28.267 18.743-45.235 18.765h-448c-16.968-0.021-33.235-6.767-45.233-18.765-11.998-12.002-18.747-28.267-18.767-45.235v-256c0.020-16.969 6.769-33.237 18.767-45.235s28.266-18.743 45.233-18.765zM128 160v256h448l0.038-256h-448.038z" />
<glyph unicode="&#xe954;" glyph-name="color-palette" d="M352.527 866.989c56.364 21.47 116.483 31.338 176.753 29.011 112.747-4.643 219.627-51.513 299.418-131.304s126.66-186.669 131.302-299.416c2.325-60.271-7.539-120.388-29.009-176.755-21.474-56.363-54.101-107.81-95.936-151.258-41.835-43.452-92.015-78.003-147.524-101.589-55.514-23.586-115.217-35.721-175.531-35.678-25.459 0-49.877 10.116-67.883 28.117-18.003 18.005-28.117 42.423-28.117 67.883v120.32c0.029 14.78-3.354 29.367-9.887 42.624s-16.038 24.823-27.775 33.805c-11.738 8.981-25.39 15.134-39.893 17.971-14.504 2.842-29.467 2.291-43.725-1.6l-35.84-9.92c-22.884-6.251-46.901-7.138-70.185-2.594s-45.204 14.396-64.059 28.796c-18.854 14.396-34.134 32.947-44.651 54.208-10.516 21.265-15.987 44.668-15.985 68.39-0.045 60.314 12.090 120.018 35.677 175.53s58.14 105.689 101.588 147.523c43.448 41.835 94.897 74.465 151.261 95.936zM662.528 94.613c47.582 20.301 90.543 50.057 126.272 87.467v-0.32c36.062 37.129 64.166 81.225 82.598 129.587 18.432 48.367 26.803 99.981 24.602 151.693-5.013 96.23-45.491 187.192-113.63 255.33s-159.1 108.618-255.33 113.63c-51.678 2.026-103.234-6.409-151.573-24.797s-92.465-46.353-129.731-82.214c-37.266-35.862-66.904-78.881-87.135-126.479s-30.64-98.789-30.6-150.51c-0.030-13.858 3.132-27.537 9.242-39.979 6.109-12.437 15.002-23.305 25.988-31.753s23.77-14.251 37.361-16.96c13.591-2.714 27.624-2.257 41.010 1.331l35.84 9.92c13.869 3.797 28.181 5.734 42.56 5.76 42.435 0 83.131-16.858 113.139-46.861 30.003-30.007 46.861-70.703 46.861-113.139v-120.32c0-8.486 3.371-16.627 9.374-22.626 5.999-6.003 14.14-9.374 22.626-9.374 51.733-0.098 102.942 10.317 150.528 30.613zM576 672c0-35.346-28.655-64-64-64s-64 28.654-64 64c0 35.346 28.655 64 64 64s64-28.654 64-64zM384 576c0-35.346-28.654-64-64-64s-64 28.654-64 64c0 35.346 28.654 64 64 64s64-28.654 64-64zM704 512c35.345 0 64 28.654 64 64s-28.655 64-64 64c-35.345 0-64-28.654-64-64s28.655-64 64-64zM800 384c0-35.345-28.655-64-64-64s-64 28.655-64 64c0 35.345 28.655 64 64 64s64-28.655 64-64zM608 160c35.345 0 64 28.655 64 64s-28.655 64-64 64c-35.345 0-64-28.655-64-64s28.655-64 64-64z" />
<glyph unicode="&#xe955;" glyph-name="color-switch" d="M832 832h-640c-16.967-0.021-33.233-6.771-45.231-18.769s-18.747-28.264-18.769-45.231v-640c0.021-16.969 6.771-33.233 18.769-45.231s28.264-18.748 45.231-18.769h640c16.969 0.021 33.233 6.771 45.231 18.769s18.748 28.262 18.769 45.231v640c-0.021 16.967-6.771 33.233-18.769 45.231s-28.262 18.747-45.231 18.769zM192 128l640 640v-640h-640z" />
<glyph unicode="&#xe956;" glyph-name="column" d="M192 832h64v-768h-64v768zM576 768v-640h-128v640h128zM576 832h-128c-16.973 0-33.253-6.743-45.255-18.745s-18.745-28.281-18.745-45.255v-640c0-16.973 6.743-33.254 18.745-45.257s28.282-18.743 45.255-18.743h128c16.973 0 33.254 6.741 45.257 18.743s18.743 28.284 18.743 45.257v640c0 16.974-6.741 33.253-18.743 45.255s-28.284 18.745-45.257 18.745zM832 832h-64v-768h64v768z" />
<glyph unicode="&#xe957;" glyph-name="compare" d="M896 768h-320v64c0 16.974-6.741 33.253-18.743 45.255s-28.284 18.745-45.257 18.745h-384c-16.974 0-33.253-6.743-45.255-18.745s-18.745-28.281-18.745-45.255v-640c0-16.973 6.743-33.254 18.745-45.257s28.281-18.743 45.255-18.743h320v-64c0-16.973 6.741-33.254 18.743-45.257s28.284-18.743 45.257-18.743h384c16.973 0 33.254 6.741 45.257 18.743s18.743 28.284 18.743 45.257v640c0 16.974-6.741 33.253-18.743 45.255s-28.284 18.745-45.257 18.745zM128 480h197.44l-82.56-82.88 45.12-45.12 160 160-160 160-45.12-45.12 82.56-82.88h-197.44v288h384v-640h-384v288zM512 64v64c16.973 0 33.254 6.741 45.257 18.743s18.743 28.284 18.743 45.257v512h320v-288h-197.44l82.56 82.88-45.12 45.12-160-160 160-160 45.12 45.12-82.56 82.88h197.44v-288h-384z" />
<glyph unicode="&#xe958;" glyph-name="condition-point" d="M486.481 5.047c8.090-3.349 16.764-5.065 25.519-5.047 8.755-0.017 17.425 1.698 25.519 5.047 8.090 3.345 15.437 8.256 21.623 14.451l381.355 381.359c12.489 12.51 19.503 29.466 19.503 47.142s-7.014 34.633-19.503 47.142l-381.355 381.357c-12.51 12.487-29.466 19.5-47.142 19.5s-34.633-7.013-47.142-19.5l-381.357-381.357c-12.487-12.51-19.5-29.466-19.5-47.142s7.013-34.633 19.5-47.142l381.357-381.359c6.187-6.195 13.534-11.106 21.623-14.451zM510.11 831.245c0.503 0.499 1.182 0.78 1.89 0.781 0.708-0.001 1.387-0.282 1.89-0.781l381.355-381.355c0.499-0.503 0.781-1.182 0.781-1.89s-0.282-1.387-0.781-1.89l-381.355-381.355c-0.503-0.495-1.182-0.777-1.89-0.777s-1.387 0.282-1.89 0.777l-381.355 381.355c-0.5 0.503-0.78 1.182-0.78 1.89s0.28 1.387 0.78 1.89l381.355 381.355zM255.998 448l256.002 256 256-256-256-256-256.002 256z" />
<glyph unicode="&#xe959;" glyph-name="condition-wait-point" d="M725.338 767.284c-63.147 42.194-137.391 64.716-213.338 64.716-101.808-0.115-199.412-40.609-271.401-112.598s-112.483-169.594-112.599-271.402c0-75.947 22.522-150.191 64.716-213.338 42.194-63.151 102.167-112.367 172.334-141.431s147.377-36.668 221.865-21.854c74.487 14.818 142.912 51.392 196.617 105.092 53.7 53.705 90.274 122.129 105.092 196.617 14.814 74.487 7.211 151.697-21.854 221.865s-78.281 130.139-141.431 172.334zM263.105 820.498c73.673 49.227 160.289 75.502 248.895 75.502 118.818 0 232.768-47.2 316.783-131.216 84.019-84.016 131.217-197.967 131.217-316.784 0-88.606-26.274-175.223-75.503-248.896-49.225-73.673-119.194-131.093-201.054-165.001-81.86-33.911-171.938-42.782-258.843-25.493-86.903 17.284-166.73 59.951-229.384 122.607-62.654 62.652-105.322 142.481-122.608 229.385s-8.414 176.979 25.494 258.841c33.908 81.861 91.329 151.829 165.003 201.056zM255.998 448l255.998 256 256-256-256-256-255.998 256z" />
<glyph unicode="&#xe95a;" glyph-name="container-software" d="M146.767 82.765c11.998-11.998 28.266-18.743 45.233-18.765h640c16.969 0.021 33.233 6.767 45.235 18.765 11.998 12.002 18.743 28.267 18.765 45.235v320h-64v-320h-640v640h320v64h-320c-16.968-0.020-33.235-6.769-45.233-18.767s-18.747-28.266-18.767-45.233v-640c0.020-16.969 6.769-33.233 18.767-45.235zM896 576h-256v256h256v-256zM704 640h128v128h-128v-128zM544 480v192h-256v-448h448v256h-192zM352 608h128v-128h-128v128zM480 288h-128v128h128v-128zM672 288h-128v128h128v-128z" />
<glyph unicode="&#xe95b;" glyph-name="contour-finding" d="M393.6 812.794l-19.2 60.8c44.204 15.456 90.778 23.038 137.6 22.4v-64c-40.252 0.132-80.252-6.354-118.4-19.2zM246.4 809.594c-36.704-28.167-69.052-61.593-96-99.2l51.2-38.4c23.503 32.593 51.516 61.684 83.2 86.4l-38.4 51.2zM147.2 566.394l-60.8 19.2c-15.456-44.204-23.038-90.775-22.4-137.598h64c-0.132 40.252 6.354 80.252 19.2 118.398zM150.4 182.404c-27.575 38.093-49.158 80.179-64 124.8l60.8 19.2c12.942-37.641 31.265-73.207 54.4-105.6l-51.2-38.4zM249.6 86.396c38.092-27.575 80.179-49.161 124.8-64l19.2 60.8c-37.641 12.941-73.21 31.262-105.6 54.4l-38.4-51.2zM774.4 86.4c37.692 28.092 71.108 61.508 99.2 99.2l-51.2 38.4c-23.795-33.404-52.996-62.605-86.4-86.4l38.4-51.2zM937.6 310.4l-60.8 19.2c12.847 38.148 19.332 78.148 19.2 118.4h64c-0.939-46.694-8.482-93.018-22.4-137.6zM934.4 588.794c-14.839 44.622-36.425 86.709-64 124.8l-51.2-38.4c23.134-32.39 41.459-67.959 54.4-105.6l60.8 19.2zM646.4 876.812c44.621-14.842 86.707-36.425 124.8-64l-38.4-51.2c-32.388 23.135-67.959 41.458-105.6 54.4l19.2 60.8zM649.6 22.387l-19.2 60.8c-38.148-12.847-78.148-19.332-118.4-19.2v-64c46.507 2.769 92.612 10.278 137.6 22.4zM334.218 181.931c52.624-35.162 114.49-53.931 177.782-53.931 84.838 0.098 166.178 33.843 226.167 93.833s93.734 141.329 93.833 226.167c0 63.292-18.769 125.158-53.931 177.782s-85.137 93.639-143.612 117.859c-58.47 24.22-122.812 30.557-184.887 18.21-62.073-12.347-119.091-42.825-163.844-87.577s-75.23-101.772-87.577-163.844c-12.347-62.076-6.010-126.417 18.21-184.887 24.22-58.475 65.235-108.45 117.859-143.612zM369.774 660.856c42.099 28.13 91.593 43.144 142.226 43.144 67.87-0.078 132.941-27.075 180.932-75.067s74.991-113.063 75.068-180.933c0-50.633-15.014-100.126-43.145-142.225s-68.109-74.914-114.889-94.289c-46.78-19.375-98.253-24.444-147.908-14.566-49.661 9.877-95.276 34.257-131.078 70.063-35.802 35.802-60.184 81.417-70.062 131.076-9.878 49.655-4.808 101.129 14.568 147.908s52.188 86.76 94.287 114.889z" />
<glyph unicode="&#xe95c;" glyph-name="contrast" d="M939.84 581.12c-8.589 27.841-19.955 54.749-33.92 80.32-20.651 37.952-46.622 72.757-77.12 103.36-62.656 62.649-142.481 105.312-229.385 122.595s-176.977 8.408-258.836-25.501c-81.859-33.909-151.824-91.331-201.049-165.003s-75.498-160.286-75.498-248.89c0-88.606 26.274-175.219 75.498-248.892s119.191-131.093 201.049-165.001c81.859-33.911 171.932-42.786 258.836-25.502 86.903 17.28 166.729 59.947 229.385 122.594 30.498 30.605 56.469 65.408 77.12 103.36 13.965 25.57 25.331 52.48 33.92 80.32 26.978 86.694 26.978 179.546 0 266.24zM128 448c0 101.843 40.457 199.515 112.471 271.529s169.686 112.471 271.529 112.471v-768c-101.843 0-199.515 40.457-271.529 112.469-72.014 72.017-112.471 169.685-112.471 271.531z" />
<glyph unicode="&#xe95d;" glyph-name="copy-file" d="M128 384h64v448h448v64h-448c-35.2 0-64-28.8-64-64v-448zM681.6 684.8l195.2-195.2c12.8-12.8 19.2-28.8 19.2-44.8v-380.8c0-35.2-28.8-64-64-64h-448c-35.2 0-64 28.8-64 64v576c0 35.2 28.8 64 64 64h256c16 0 32-6.4 41.6-19.2zM828.8 448l-188.8 192v-192h188.8zM384 640v-576h448v320h-192c-35.2 0-64 28.8-64 64v192h-192z" />
<glyph unicode="&#xe95e;" glyph-name="copy" d="M64 384h64v448h448v64h-448c-16.974 0-33.253-6.743-45.255-18.745s-18.745-28.281-18.745-45.255v-448zM896 64v576h-576v-576h576zM320 704h576c16.973 0 33.254-6.743 45.257-18.745s18.743-28.281 18.743-45.255v-576c0-16.973-6.741-33.254-18.743-45.257s-28.284-18.743-45.257-18.743h-576c-16.974 0-33.253 6.741-45.255 18.743s-18.745 28.284-18.745 45.257v576c0 16.974 6.743 33.253 18.745 45.255s28.281 18.745 45.255 18.745z" />
<glyph unicode="&#xe95f;" glyph-name="course" d="M768 0h-512c-16.968 0.021-33.235 6.767-45.233 18.765-11.998 12.002-18.747 28.267-18.767 45.235v768c0.017 16.969 6.765 33.237 18.764 45.236s28.268 18.747 45.236 18.764h512c16.969-0.020 33.237-6.769 45.235-18.767s18.743-28.266 18.765-45.233v-531.78l-160 80-160-80v531.78h-256v-768h512v128h64v-128c-0.021-16.969-6.771-33.233-18.769-45.231s-28.262-18.748-45.231-18.769zM672 451.78l96-48v428.22h-192v-428.22l96 48z" />
<glyph unicode="&#xe960;" glyph-name="credentials" d="M256 896h512c16.969-0.020 33.237-6.769 45.235-18.767s18.743-28.266 18.765-45.233v-768c-0.021-16.969-6.771-33.233-18.769-45.231s-28.262-18.748-45.231-18.769h-512c-16.968 0.021-33.235 6.767-45.233 18.765-11.998 12.002-18.747 28.267-18.767 45.235v768c0.017 16.969 6.765 33.237 18.764 45.236s28.268 18.747 45.236 18.764zM384 128v-64h256v64c0 8.486-3.371 16.627-9.374 22.626-5.999 6.003-14.14 9.374-22.626 9.374h-192c-8.487 0-16.626-3.371-22.627-9.374-6.001-5.999-9.373-14.14-9.373-22.626zM704 128v-64h64v768h-512v-768h64v64c0 25.459 10.114 49.877 28.118 67.883 18.004 18.001 42.421 28.117 67.882 28.117h192c25.459 0 49.877-10.116 67.883-28.117 18.001-18.005 28.117-42.423 28.117-67.883zM576 768h-128v-64h128v64zM512 256c25.314 0 50.065 7.505 71.113 21.572 21.052 14.063 37.457 34.057 47.142 57.442 9.69 23.39 12.224 49.126 7.287 73.958-4.941 24.828-17.131 47.637-35.034 65.536-17.899 17.903-40.708 30.093-65.536 35.034-24.832 4.937-50.569 2.402-73.958-7.287-23.386-9.685-43.377-26.091-57.443-47.142-14.065-21.047-21.572-45.798-21.572-71.113 0-33.95 13.486-66.505 37.49-90.509s56.564-37.491 90.51-37.491zM512 448c12.659 0 25.033-3.755 35.558-10.786 10.522-7.031 18.726-17.028 23.569-28.723 4.847-11.695 6.114-24.563 3.644-36.975-2.47-12.416-8.567-23.821-17.515-32.772-8.951-8.947-20.356-15.044-32.772-17.515-12.412-2.47-25.28-1.203-36.975 3.644-11.695 4.843-21.692 13.047-28.723 23.569-7.031 10.526-10.786 22.899-10.786 35.558 0 16.973 6.741 33.254 18.743 45.257s28.284 18.743 45.257 18.743z" />
<glyph unicode="&#xe961;" glyph-name="crop" d="M288 896v-672h672v-64h-160v-160h-64v160h-448c-16.974 0-33.253 6.741-45.255 18.743s-18.745 28.284-18.745 45.257v448h-160v64h160v160h64zM736 320h64v352c0 16.974-6.741 33.253-18.743 45.255s-28.284 18.745-45.257 18.745h-352v-64h352v-352z" />
<glyph unicode="&#xe962;" glyph-name="cube-view" d="M528.124 923.642l384-224c4.83-2.818 8.841-6.854 11.627-11.703s4.25-10.345 4.25-15.938v-448c0-5.594-1.463-11.089-4.25-15.936-2.786-4.851-6.797-8.887-11.627-11.703l-384-224c-4.894-2.859-10.458-4.361-16.124-4.361s-11.23 1.502-16.124 4.361l-384.001 224c-4.831 2.816-8.839 6.852-11.624 11.703-2.785 4.847-4.251 10.342-4.251 15.936v448c0 5.593 1.466 11.088 4.251 15.938s6.793 8.885 11.624 11.703l384.001 224c4.894 2.855 10.458 4.36 16.124 4.36s11.23-1.504 16.124-4.36zM512 37.047l352 205.329v411.249l-352 205.328-352-205.328v-411.249l352-205.329zM760.862 464.687c-19.776 50.368-53.897 93.827-98.133 124.99s-96.644 48.66-150.729 50.323c-54.084-1.663-106.494-19.16-150.73-50.323s-78.356-74.622-98.131-124.99l-7.139-16.687 7.139-16.687c19.775-50.368 53.894-93.828 98.131-124.992 44.236-31.159 96.646-48.657 150.73-50.321 54.084 1.664 106.492 19.162 150.729 50.321 44.237 31.164 78.357 74.624 98.133 124.992l7.138 16.687-7.138 16.687zM512 320c-25.314 0-50.065 7.505-71.113 21.572-21.050 14.063-37.456 34.057-47.144 57.442-9.688 23.39-12.223 49.126-7.284 73.958 4.939 24.828 17.13 47.637 35.031 65.537 17.9 17.901 40.709 30.092 65.537 35.031 24.832 4.939 50.569 2.404 73.958-7.284 23.386-9.688 43.379-26.095 57.442-47.144 14.067-21.047 21.572-45.798 21.572-71.113-0.038-33.937-13.538-66.47-37.534-90.466-23.996-24-56.529-37.495-90.466-37.534zM512 384c35.345 0 64 28.655 64 64s-28.655 64-64 64c-35.345 0-64-28.655-64-64s28.655-64 64-64z" />
<glyph unicode="&#xe963;" glyph-name="cube" d="M912.124 699.642l-384 224c-4.894 2.855-10.458 4.36-16.124 4.36s-11.23-1.504-16.124-4.36l-384.001-224c-4.831-2.818-8.839-6.854-11.624-11.703s-4.251-10.345-4.251-15.938v-448c0-5.594 1.466-11.089 4.251-15.94 2.785-4.847 6.793-8.883 11.624-11.703l384.001-224c4.894-2.854 10.458-4.356 16.124-4.356s11.23 1.502 16.124 4.356l384 224c4.83 2.82 8.841 6.857 11.627 11.703 2.786 4.851 4.25 10.347 4.25 15.94v448c0 5.593-1.463 11.088-4.25 15.938s-6.797 8.885-11.627 11.703zM512 858.954l320.499-186.954-320.499-186.953-320.499 186.953 320.499 186.954zM160 616.282l320-186.654v-373.909l-320 186.658v373.905zM544 55.718v373.909l320 186.654v-373.905l-320-186.658z" />
<glyph unicode="&#xe964;" glyph-name="currency-dollar" d="M736 303.518c0 147.686-120.96 164.514-218.15 178.014-105.919 14.75-165.851 27.52-165.851 118.721 0 76.576 80.228 103.747 148.921 103.747 34.24 1.108 68.25-5.94 99.23-20.561s58.039-36.397 78.95-63.532l49.796 40.186c-22.391 28.793-50.257 52.877-81.988 70.867s-66.705 29.532-102.908 33.961v99.078h-64v-96.704c-115.688-7.014-192.002-72.32-192.002-167.040 0-151.36 122.56-168.405 221.041-182.080 104.081-14.49 162.961-26.957 162.961-114.658 0-97.037-100.245-111.518-160-111.518-109.743 0-156.104 30.844-199.103 84.092l-49.798-40.183c25.37-33.429 58.182-60.484 95.832-79.023 37.65-18.534 79.102-28.041 121.069-27.759v-97.126h64v97.438c119.219 9.732 192 74.47 192 174.080z" />
<glyph unicode="&#xe965;" glyph-name="currency" d="M725.338 767.284c-63.147 42.194-137.391 64.716-213.338 64.716-101.751-0.298-199.25-40.851-271.2-112.8s-112.502-169.449-112.8-271.2c0-75.947 22.522-150.191 64.716-213.338 42.194-63.151 102.167-112.367 172.334-141.431s147.377-36.668 221.865-21.854c74.487 14.818 142.912 51.392 196.617 105.092 53.7 53.705 90.274 122.129 105.092 196.617 14.814 74.487 7.211 151.697-21.854 221.865s-78.281 130.139-141.431 172.334zM263.105 820.498c73.673 49.227 160.289 75.502 248.895 75.502 118.711-0.348 232.461-47.66 316.399-131.6 83.942-83.941 131.255-197.69 131.601-316.4 0-88.606-26.274-175.223-75.503-248.896-49.225-73.673-119.194-131.093-201.054-165.001-81.86-33.911-171.938-42.782-258.843-25.493-86.903 17.284-166.73 59.951-229.384 122.607-62.654 62.652-105.322 142.481-122.608 229.385s-8.414 176.979 25.494 258.841c33.908 81.861 91.329 151.829 165.003 201.056zM672 640v-64h-256v-96h192c16.969-0.017 33.237-6.767 45.235-18.765s18.748-28.267 18.765-45.235v-96c-0.021-16.969-6.767-33.237-18.765-45.235s-28.267-18.743-45.235-18.765h-64v-96h-64v96h-128v64h256v96h-192c-16.969 0.017-33.237 6.767-45.236 18.765s-18.747 28.267-18.764 45.235v96c0.017 16.969 6.765 33.237 18.764 45.236s28.268 18.747 45.236 18.764h64v96h64v-96h128z" />
<glyph unicode="&#xe966;" glyph-name="cursor-1" d="M736 64c-4.211-0.026-8.388 0.785-12.284 2.377-3.9 1.591-7.445 3.938-10.436 6.903l-196.16 196.48-106.56-160c-3.393-5.197-8.225-9.297-13.907-11.797s-11.968-3.294-18.093-2.283c-5.999 0.892-11.621 3.473-16.21 7.441-4.589 3.964-7.956 9.152-9.71 14.959l-192 640c-2.282 5.732-2.859 12.001-1.66 18.053s4.121 11.628 8.415 16.058c4.294 4.43 9.777 7.523 15.789 8.909s12.296 1.004 18.096-1.1l640-192c5.807-1.753 10.995-5.121 14.959-9.71 3.968-4.589 6.549-10.211 7.441-16.21 1.011-6.125 0.218-12.411-2.283-18.093s-6.601-10.513-11.797-13.907l-160-106.56 196.48-196.16c2.999-2.974 5.38-6.515 7.006-10.415 1.621-3.9 2.458-8.081 2.458-12.305s-0.836-8.405-2.458-12.305c-1.626-3.9-4.006-7.441-7.006-10.415l-128-128c-5.777-6.071-13.705-9.63-22.080-9.92zM736 141.12l82.88 82.88-229.12 228.8 168 112-518.080 155.52 155.52-518.080 112 168 228.8-229.12z" />
<glyph unicode="&#xe967;" glyph-name="cursor-2" d="M874.88 574.080l-704 256c-5.715 2.062-11.899 2.454-17.83 1.13s-11.36-4.308-15.657-8.604c-4.297-4.296-7.281-9.727-8.604-15.657s-0.931-12.114 1.13-17.83l256-704c2.236-6.182 6.323-11.529 11.705-15.309s11.798-5.807 18.375-5.811c6.409-0.004 12.672 1.911 17.98 5.508 5.303 3.593 9.408 8.7 11.78 14.652l122.88 307.2 307.2 122.88c6.071 2.304 11.298 6.4 14.985 11.742 3.691 5.346 5.666 11.685 5.666 18.178s-1.975 12.834-5.666 18.178c-3.686 5.344-8.913 9.44-14.985 11.742h-0.96zM532.16 446.080l-12.8-5.12-5.12-12.8-98.24-242.56-202.56 560.96 560.96-202.56-242.24-97.92z" />
<glyph unicode="&#xe968;" glyph-name="cursor-alt" d="M512 0c-88.606 0-175.222 26.274-248.895 75.503-73.673 49.225-131.095 119.194-165.003 201.054s-42.78 171.938-25.494 258.843c17.286 86.903 59.954 166.73 122.608 229.384s142.48 105.322 229.384 122.608c86.905 17.286 176.983 8.414 258.843-25.494s151.829-91.329 201.054-165.003c49.229-73.673 75.503-160.289 75.503-248.895-0.132-118.775-47.377-232.649-131.362-316.638-83.989-83.985-197.862-131.23-316.638-131.362zM512 832c-75.947 0-150.19-22.522-213.339-64.716s-112.367-102.167-141.431-172.334c-29.064-70.167-36.669-147.377-21.852-221.865s51.389-142.912 105.092-196.617c53.704-53.7 122.126-90.274 196.615-105.092 74.487-14.814 151.697-7.211 221.867 21.854 70.165 29.065 130.138 78.281 172.331 141.431 42.197 63.147 64.717 137.391 64.717 213.338-0.115 101.807-40.61 199.412-112.597 271.401-71.991 71.989-169.596 112.483-271.403 112.599zM480 736v-224h64v224h-64zM224 480h224v-64h-224v64zM480 384v-224h64v224h-64zM576 480h224v-64h-224v64z" />
<glyph unicode="&#xe969;" glyph-name="cursor" d="M128 832h288v-64h-224v-224.32h-64v288.32zM655.68 700.15l288-160c4.992-2.805 9.139-6.898 12.006-11.852 2.871-4.954 4.361-10.586 4.314-16.307v-320c-0.009-5.67-1.527-11.238-4.395-16.128-2.867-4.894-6.98-8.934-11.925-11.712l-288-160c-4.809-2.65-10.193-4.075-15.68-4.16-5.389 0.068-10.671 1.502-15.36 4.16l-288 160c-5.003 2.735-9.183 6.758-12.108 11.657-2.926 4.894-4.49 10.479-4.532 16.183v320c-0.112 5.662 1.281 11.251 4.036 16.196 2.755 4.949 6.772 9.076 11.644 11.962l288 160c4.864 2.809 10.385 4.287 16 4.287 5.619 0 11.136-1.478 16-4.287zM384 210.871l224-124.48v247.040l-224 124.48v-247.040zM417.92 511.991l222.080-123.2 222.080 123.2-222.080 123.519-222.080-123.519zM672 86.391l224 124.48v247.040l-224-124.48v-247.040z" />
<glyph unicode="&#xe96a;" glyph-name="curve-auto-colon" d="M304 704h339.2c7.932-38.849 30.003-73.37 61.939-96.87s71.458-34.304 110.908-30.319c39.45 3.985 76.015 22.476 102.605 51.889 26.594 29.412 41.314 67.65 41.314 107.301s-14.72 77.888-41.314 107.301c-26.59 29.412-63.155 47.904-102.605 51.889s-78.972-6.819-110.908-30.319c-31.936-23.5-54.007-58.021-61.939-96.87h-339.2c-46.678 0-91.444-18.543-124.451-51.549s-51.549-77.773-51.549-124.451c0-46.678 18.543-91.443 51.549-124.45s77.773-51.55 124.451-51.55h352c29.705 0 58.193-11.802 79.198-32.806 21.001-21.001 32.802-49.489 32.802-79.194s-11.802-58.193-32.802-79.198c-21.005-21.001-49.493-32.802-79.198-32.802h-275.2c-7.93 38.848-30.003 73.37-61.939 96.87s-71.46 34.304-110.91 30.319c-39.45-3.985-76.014-22.477-102.605-51.887-26.591-29.414-41.314-67.652-41.314-107.302s14.723-77.888 41.314-107.302c26.591-29.41 63.155-47.902 102.605-51.887s78.974 6.818 110.91 30.319c31.936 23.501 54.009 58.022 61.939 96.87h275.2c46.677 0 91.443 18.543 124.45 51.55s51.55 77.773 51.55 124.45c0 46.677-18.543 91.443-51.55 124.45s-77.773 51.55-124.45 51.55h-352c-29.705 0-58.192 11.802-79.196 32.802-21.004 21.006-32.804 49.493-32.804 79.197s11.8 58.192 32.804 79.196c21.004 21.004 49.492 32.804 79.196 32.804zM800 832c18.987 0 37.547-5.63 53.333-16.179s28.092-25.542 35.358-43.084c7.266-17.542 9.169-36.844 5.466-55.466-3.708-18.622-12.847-35.728-26.274-49.154s-30.532-22.569-49.156-26.273c-18.62-3.704-37.922-1.803-55.462 5.463-17.545 7.266-32.538 19.571-43.085 35.358s-16.179 34.348-16.179 53.335c0 25.461 10.112 49.879 28.117 67.882s42.423 28.118 67.883 28.118zM224 64c-18.987 0-37.548 5.632-53.335 16.179s-28.091 25.54-35.357 43.085c-7.266 17.54-9.167 36.843-5.463 55.462 3.704 18.624 12.847 35.729 26.273 49.156 13.426 13.423 30.531 22.566 49.153 26.274 18.622 3.703 37.925 1.801 55.466-5.466s32.535-19.571 43.084-35.358c10.549-15.787 16.179-34.347 16.179-53.333 0-25.459-10.115-49.877-28.118-67.883s-42.422-28.117-67.882-28.117z" />
<glyph unicode="&#xe96b;" glyph-name="curve-manual" d="M698.786 859.946c28.574 23.325 64.329 36.062 101.214 36.054 30.272-0.006 59.921-8.601 85.504-24.785s46.050-39.295 59.025-66.647c12.975-27.352 17.92-57.824 14.268-87.875s-15.757-58.451-34.906-81.898c-19.149-23.447-44.557-40.981-73.271-50.565-28.719-9.584-59.563-10.825-88.956-3.578s-56.128 22.684-77.094 44.518c-20.971 21.834-35.315 49.169-41.37 78.83h-3.2c-25.463 0-49.882-10.114-67.883-28.118-18.005-18.004-28.117-42.421-28.117-67.882h-64c0 42.435 16.858 83.131 46.861 113.137 30.007 30.006 70.703 46.863 113.139 46.863h3.2c7.377 36.14 27.012 68.621 55.586 91.946zM746.662 656.179c15.787-10.548 34.351-16.179 53.338-16.179 25.459 0 49.877 10.114 67.883 28.118 18.001 18.004 28.117 42.421 28.117 67.882 0 18.987-5.632 37.548-16.179 53.335-10.551 15.787-25.545 28.092-43.085 35.358s-36.843 9.167-55.467 5.463c-18.62-3.704-35.729-12.847-49.152-26.273-13.427-13.426-22.571-30.531-26.274-49.154s-1.805-37.924 5.461-55.466c7.266-17.542 19.571-32.535 35.358-43.084zM544 544h-64v-192h64v192zM480 288c0-25.459-10.116-49.877-28.117-67.883-18.005-18.005-42.423-28.117-67.884-28.117h-3.2c-7.93 38.848-30.003 73.37-61.939 96.87s-71.46 34.304-110.91 30.319c-39.45-3.985-76.014-22.477-102.605-51.887-26.591-29.414-41.313-67.652-41.313-107.302s14.723-77.888 41.313-107.302c26.591-29.41 63.156-47.902 102.605-51.887s78.974 6.818 110.91 30.319c31.936 23.501 54.009 58.022 61.939 96.87h3.2c42.435 0 83.133 16.858 113.136 46.861 30.007 30.007 46.865 70.703 46.865 113.139h-64zM223.999 64c-18.987 0-37.548 5.628-53.335 16.179-15.787 10.547-28.091 25.54-35.357 43.085-7.266 17.54-9.167 36.843-5.463 55.462 3.704 18.624 12.847 35.729 26.273 49.156 13.425 13.423 30.531 22.566 49.153 26.274 18.622 3.703 37.925 1.801 55.466-5.466s32.535-19.571 43.084-35.358c10.549-15.787 16.179-34.347 16.179-53.333 0-25.459-10.115-49.877-28.118-67.883s-42.422-28.117-67.882-28.117z" />
<glyph unicode="&#xe96c;" glyph-name="cut-in-half" d="M896 832h-768c-16.968-0.020-33.235-6.769-45.233-18.767s-18.747-28.266-18.767-45.233v-640c0.020-16.969 6.769-33.233 18.767-45.235 11.998-11.998 28.266-18.743 45.233-18.765h768c16.969 0.021 33.233 6.767 45.235 18.765 11.998 12.002 18.743 28.267 18.765 45.235v640c-0.021 16.968-6.767 33.235-18.765 45.233-12.002 11.998-28.267 18.747-45.235 18.767zM128 768h384v-640h-384v640z" />
<glyph unicode="&#xe96d;" glyph-name="cut" d="M848 331.84l-200.32 116.16 200.32 116.16c27.831 15.668 50.334 39.305 64.614 67.871 14.285 28.566 19.691 60.751 15.526 92.416s-17.711 61.358-38.895 85.259c-21.18 23.901-49.033 40.916-79.966 48.855-13.478 3.538-27.345 5.365-41.28 5.44-28.228 0.098-55.979-7.273-80.435-21.366s-44.753-34.404-58.825-58.874c-14.071-24.47-21.419-52.227-21.295-80.454s7.71-55.919 21.995-80.266c17.498-30.129 44.352-53.725 76.48-67.2l-122.24-70.72-455.68 263.68-32-55.68 423.68-245.12-423.68-245.76 32-55.68 455.68 264.32 122.24-70.72c-32.128-13.474-58.982-37.069-76.48-67.2-14.285-24.346-21.871-52.041-21.995-80.265-0.124-28.228 7.223-55.987 21.295-80.457s34.368-44.783 58.825-58.871c24.457-14.093 52.207-21.466 80.435-21.367 13.935 0.073 27.802 1.903 41.28 5.44 30.933 7.94 58.786 24.956 79.966 48.853 21.184 23.902 34.731 53.598 38.895 85.261s-1.242 63.851-15.526 92.416c-14.281 28.565-36.783 52.203-64.614 67.87zM684.8 655.040c-6.413 10.951-10.586 23.065-12.288 35.64-1.698 12.576-0.887 25.363 2.385 37.623s8.943 23.75 16.687 33.804c7.74 10.054 17.399 18.474 28.416 24.773 10.944 6.297 23.023 10.374 35.541 11.997 12.523 1.623 25.242 0.76 37.427-2.54s23.603-8.971 33.596-16.689c9.993-7.718 18.364-17.331 24.636-28.289 6.362-10.938 10.496-23.025 12.169-35.567s0.849-25.29-2.419-37.513c-3.273-12.223-8.926-23.678-16.64-33.707s-17.335-18.435-28.309-24.733c-10.923-6.31-22.985-10.406-35.494-12.052-12.506-1.646-25.216-0.811-37.402 2.458s-23.607 8.908-33.609 16.594c-10.005 7.686-18.398 17.268-24.695 28.2zM851.2 143.040c-6.272-10.957-14.643-20.57-24.636-28.288s-21.41-13.389-33.596-16.691c-12.186-3.298-24.905-4.16-37.427-2.539-12.518 1.626-24.597 5.7-35.541 11.998-11.017 6.298-20.676 14.72-28.416 24.772-7.744 10.057-13.414 21.542-16.687 33.805-3.273 12.258-4.083 25.050-2.385 37.623 1.702 12.574 5.875 24.687 12.288 35.639 6.298 10.931 14.69 20.514 24.695 28.198 10.001 7.689 21.423 13.325 33.609 16.597 12.186 3.268 24.896 4.105 37.402 2.458 12.51-1.647 24.572-5.743 35.494-12.053 21.73-12.715 37.598-33.455 44.186-57.758 6.583-24.303 3.358-50.219-8.986-72.162v-1.6z" />
<glyph unicode="&#xe96e;" glyph-name="dashboard-reference" d="M128 896h768c16.969-0.020 33.233-6.769 45.235-18.767 11.998-11.998 18.743-28.266 18.765-45.233v-768c-0.021-16.969-6.771-33.233-18.769-45.231s-28.262-18.748-45.231-18.769h-384v64h384.064l-0.034 480h-768.030v-96h-64v384c0.017 16.969 6.765 33.237 18.764 45.236s28.268 18.747 45.236 18.764zM128 608h256v224h-256v-224zM448 832v-224h448.021l-0.021 224h-448zM640.004 448h64v-320h-64v320zM128 320v-64h146.752l-210.752-210.752 45.248-45.248 210.752 210.752v-146.752h64v256h-256zM832.004 288h-64v-160h64v160zM576 384h-64v-256h64v256z" />
<glyph unicode="&#xe96f;" glyph-name="dashboard" d="M128 896h768c16.969-0.020 33.233-6.769 45.235-18.767 11.998-11.998 18.743-28.266 18.765-45.233v-768c-0.021-16.969-6.771-33.233-18.769-45.231s-28.262-18.748-45.231-18.769h-768c-16.968 0.021-33.235 6.767-45.233 18.765-11.998 12.002-18.747 28.267-18.767 45.235v768c0.017 16.969 6.765 33.237 18.764 45.236s28.268 18.747 45.236 18.764zM448 608h448v224h-448v-224zM384 608v224h-256v-224h256zM128 544v-480h768.064l-0.043 480h-768.021zM352 128c-42.419 0.051-83.087 16.922-113.082 46.916-29.995 29.999-46.868 70.665-46.918 113.084h64c0-18.987 5.63-37.547 16.179-53.333s25.542-28.092 43.084-35.358c17.542-7.266 36.844-9.169 55.466-5.466 18.622 3.708 35.728 12.847 49.154 26.274 13.428 13.427 22.571 30.532 26.275 49.152 3.703 18.624 1.801 37.926-5.466 55.467-7.266 17.545-19.569 32.538-35.357 43.085s-34.348 16.179-53.335 16.179v64c42.435 0 83.132-16.858 113.139-46.861 30.003-30.007 46.861-70.703 46.861-113.139s-16.858-83.132-46.861-113.135c-30.007-30.007-70.705-46.865-113.139-46.865zM640 448h64v-320h-64v320zM768 288h64v-160h-64v160z" />
<glyph unicode="&#xe970;" glyph-name="data-1" d="M152.887 629.572c21.050-14.065 45.797-21.572 71.113-21.572 33.948 0 66.505 13.486 90.51 37.49s37.49 56.562 37.49 90.51c0 25.316-7.507 50.063-21.572 71.113s-34.056 37.455-57.445 47.144c-23.389 9.688-49.126 12.223-73.955 7.284s-47.637-17.129-65.538-35.031c-17.901-17.901-30.092-40.709-35.031-65.538s-2.404-50.566 7.284-73.955c9.688-23.389 26.094-43.38 47.144-57.445zM188.444 789.214c10.525 7.033 22.898 10.786 35.556 10.786 16.974 0 33.253-6.743 45.255-18.745s18.745-28.281 18.745-45.255c0-12.658-3.753-25.032-10.786-35.557s-17.028-18.728-28.722-23.572c-11.695-4.844-24.563-6.112-36.977-3.642s-23.819 8.565-32.769 17.516c-8.951 8.951-15.046 20.354-17.516 32.769s-1.202 25.283 3.642 36.977c4.844 11.695 13.047 21.69 23.572 28.722zM480 768h416v-64h-416v64zM480 192h416v-64h-416v64zM544 480h-416v-64h416v64zM224 32c-25.316 0-50.063 7.505-71.113 21.572-21.050 14.063-37.455 34.057-47.144 57.442-9.688 23.39-12.223 49.126-7.284 73.958 4.939 24.828 17.129 47.637 35.031 65.536 17.901 17.903 40.709 30.093 65.538 35.034 24.829 4.937 50.566 2.402 73.955-7.287 23.389-9.685 43.38-26.091 57.445-47.142 14.065-21.047 21.572-45.798 21.572-71.113 0-33.95-13.486-66.505-37.49-90.509s-56.562-37.491-90.51-37.491zM224 224c-12.658 0-25.032-3.755-35.556-10.786s-18.728-17.028-23.572-28.723c-4.844-11.695-6.111-24.563-3.642-36.975 2.47-12.416 8.565-23.821 17.516-32.772 8.951-8.947 20.354-15.044 32.769-17.515s25.283-1.203 36.977 3.644c11.695 4.843 21.69 13.047 28.722 23.569 7.032 10.526 10.786 22.899 10.786 35.558 0 16.973-6.743 33.254-18.745 45.257s-28.281 18.743-45.255 18.743zM728.887 341.572c21.047-14.067 45.798-21.572 71.113-21.572 33.95 0 66.505 13.487 90.509 37.491s37.491 56.559 37.491 90.509c0 25.314-7.505 50.065-21.572 71.113-14.063 21.050-34.057 37.456-57.442 47.144-23.39 9.688-49.126 12.223-73.958 7.284-24.828-4.939-47.637-17.129-65.536-35.031-17.903-17.9-30.093-40.709-35.034-65.537-4.937-24.832-2.402-50.569 7.287-73.958 9.685-23.386 26.091-43.379 47.142-57.442zM764.442 501.214c10.526 7.031 22.899 10.786 35.558 10.786 16.973 0 33.254-6.741 45.257-18.743s18.743-28.284 18.743-45.257c0-12.659-3.755-25.033-10.786-35.558-7.031-10.522-17.028-18.726-28.723-23.569-11.695-4.847-24.563-6.114-36.975-3.644-12.416 2.47-23.821 8.567-32.772 17.515-8.947 8.951-15.044 20.356-17.515 32.772-2.47 12.412-1.199 25.28 3.644 36.975s13.047 21.692 23.569 28.723z" />
<glyph unicode="&#xe971;" glyph-name="data-base-alt" d="M128 832h768c16.969-0.020 33.233-6.769 45.235-18.767 11.998-11.998 18.743-28.266 18.765-45.233v-704c-0.021-16.969-6.767-33.233-18.765-45.235-12.002-11.998-28.267-18.743-45.235-18.765h-768c-16.968 0.021-33.235 6.767-45.233 18.765-11.998 12.002-18.747 28.267-18.767 45.235v704c0.020 16.968 6.769 33.235 18.767 45.233s28.266 18.747 45.233 18.767zM480 768h-352v-704h352v704zM544 768v-704h352v704h-352zM384 704h-160v-64h160v64zM384 576h-160v-64h160v64zM224 448h160v-64h-160v64zM800 704h-160v-64h160v64zM640 576h160v-64h-160v64zM800 448h-160v-64h160v64z" />
<glyph unicode="&#xe972;" glyph-name="data-base" d="M256 864h512c16.973 0 33.254-6.743 45.257-18.745s18.743-28.281 18.743-45.255v-704c0-16.973-6.741-33.254-18.743-45.257s-28.284-18.743-45.257-18.743h-512c-16.974 0-33.253 6.741-45.255 18.743s-18.745 28.284-18.745 45.257v704c0 16.974 6.743 33.253 18.745 45.255s28.281 18.745 45.255 18.745zM256 608h512v192h-512v-192zM256 544v-192h512v192h-512zM256 288v-192h512v192h-512zM384 704c0-17.673-14.327-32-32-32s-32 14.327-32 32c0 17.673 14.327 32 32 32s32-14.327 32-32zM352 416c17.673 0 32 14.327 32 32s-14.327 32-32 32c-17.673 0-32-14.327-32-32s14.327-32 32-32zM384 192c0-17.673-14.327-32-32-32s-32 14.327-32 32c0 17.673 14.327 32 32 32s32-14.327 32-32z" />
<glyph unicode="&#xe973;" glyph-name="debug" d="M954.56 320l10.88 64-165.44 27.2v132.8c0 2.56 0 4.8 0 7.36l161.92 43.52-16.32 61.76-154.56-41.28c-10.526 39.78-29.449 76.844-55.505 108.693-26.052 31.85-58.628 57.747-95.535 75.947v96h-64v-71.36c-42.103 9.814-85.897 9.814-128 0v71.36h-64v-96c-37.018-18.406-69.638-44.567-95.645-76.703s-44.791-69.495-55.075-109.537l-154.56 42.88-14.72-61.76 160-43.52c0-2.56 0-4.8 0-7.36v-132.8l-165.12-27.2 10.24-64 154.88 26.24c0.731-39.488 9.667-78.391 26.24-114.24l-144.96-145.28 45.44-45.44 134.080 134.4c26.929-34.569 61.393-62.537 100.765-81.775s82.617-29.239 126.435-29.239c43.823 0 87.066 10.001 126.434 29.239 39.373 19.238 73.835 47.206 100.766 81.775l134.080-134.4 45.44 45.44-145.28 145.28c16.683 35.823 25.728 74.731 26.56 114.24l154.56-26.24zM480 130.56c-53.265 7.689-101.985 34.3-137.242 74.961s-54.695 92.659-54.758 146.479v192h192v-413.44zM297.28 608c13.751 46.273 42.082 86.866 80.774 115.732s85.673 44.461 133.946 44.461c48.273 0 95.253-15.595 133.948-44.461 38.69-28.866 67.021-69.459 80.772-115.732h-429.44zM736 352c-0.064-53.82-19.503-105.818-54.758-146.479s-83.972-67.273-137.242-74.961v413.44h192v-192z" />
<glyph unicode="&#xe974;" glyph-name="delete" d="M384 896h256v-64h-256v64zM128 768v-64h64v-640c0-16.973 6.743-33.254 18.745-45.257s28.281-18.743 45.255-18.743h512c16.973 0 33.254 6.741 45.257 18.743s18.743 28.284 18.743 45.257v640h64v64h-768zM256 64v640h512v-640h-512zM384 576h64v-384h-64v384zM576 576h64v-384h-64v384z" />
</font>
</defs>
</svg>
